<?xml version="1.0" standalone="no"?>
<!DOCTYPE svg PUBLIC "-//W3C//DTD SVG 1.1//EN" "http://www.w3.org/Graphics/SVG/1.1/DTD/svg11.dtd" >
<svg xmlns="http://www.w3.org/2000/svg">
<metadata>Generated by IcoMoon</metadata>
<defs>
<font id="icomoon" horiz-adv-x="1024">
<font-face units-per-em="1024" ascent="960" descent="-64" />
<missing-glyph horiz-adv-x="1024" />
<glyph unicode="&#x20;" horiz-adv-x="512" d="" />
<glyph unicode="&#xe900;" glyph-name="facebook-app-symbol" d="M591.302-64v467.060h156.71l23.511 182.076h-180.221v116.229c0 52.699 14.574 88.612 90.229 88.612l96.335 0.040v162.855c-16.66 2.165-73.847 7.129-140.407 7.129-138.987 0-234.141-84.837-234.141-240.603v-134.261h-157.185v-182.076h157.185v-467.060h187.983z" />
<glyph unicode="&#xe901;" glyph-name="twitter" d="M1024 765.504c-38.080-16.704-78.656-27.776-120.96-33.152 43.52 25.984 76.736 66.816 92.352 116.032-40.576-24.192-85.376-41.28-133.12-50.816-38.528 41.024-93.44 66.432-153.344 66.432-116.224 0-209.792-94.336-209.792-209.984 0-16.64 1.408-32.64 4.864-47.872-174.528 8.512-328.96 92.16-432.704 219.584-18.112-31.424-28.736-67.392-28.736-106.112 0-72.704 37.44-137.152 93.248-174.464-33.728 0.64-66.816 10.432-94.848 25.856 0-0.64 0-1.472 0-2.304 0-102.016 72.768-186.752 168.192-206.272-17.088-4.672-35.712-6.912-55.040-6.912-13.44 0-27.008 0.768-39.744 3.584 27.2-83.136 104.384-144.256 196.16-146.24-71.424-55.872-162.112-89.536-260.288-89.536-17.216 0-33.728 0.768-50.24 2.88 92.992-59.968 203.2-94.208 322.048-94.208 386.304 0 597.504 320 597.504 597.376 0 9.28-0.32 18.24-0.768 27.136 41.664 29.568 76.672 66.496 105.216 108.992z" />
<glyph unicode="&#xe902;" glyph-name="instagram" d="M767.994 960h-511.988c-140.784 0-255.994-115.21-255.994-255.994v-512.012c0-140.747 115.21-255.994 255.994-255.994h511.988c140.784 0 255.994 115.247 255.994 255.994v512.012c0 140.784-115.21 255.994-255.994 255.994zM938.652 191.994c0-94.078-76.528-170.658-170.658-170.658h-511.988c-94.090 0-170.658 76.581-170.658 170.658v512.012c0 94.103 76.568 170.658 170.658 170.658h511.988c94.13 0 170.658-76.556 170.658-170.658v-512.012zM853.367 725.343c0-35.345-28.653-63.998-63.998-63.998s-63.998 28.653-63.998 63.998c0 35.345 28.653 63.998 63.998 63.998s63.998-28.653 63.998-63.998zM512 704.006c-141.412 0-255.994-114.595-255.994-255.994 0-141.347 114.582-256.019 255.994-256.019 141.372 0 255.994 114.672 255.994 256.019 0 141.399-114.622 255.994-255.994 255.994zM512 277.329c-94.245 0-170.658 76.413-170.658 170.683s76.413 170.658 170.658 170.658 170.658-76.388 170.658-170.658-76.413-170.683-170.658-170.683z" />
<glyph unicode="&#xe903;" glyph-name="youtube" d="M850.845 82.226h-681.814c-80.719 0-148.696 60.445-158.11 140.633-14.563 123.633-14.563 324.876 0 448.548 9.414 80.156 77.383 140.594 158.11 140.594h682.564c80.453 0 148.391-60.203 158.063-140.055l5.484-45.344c11.352-93.695 11.859-246.172 1.156-339.876l-7.266-63.391c-9.203-80.43-77.195-141.11-158.188-141.11zM169.032 742.501c-45.477 0-83.774-34.078-89.086-79.211-14.031-119.211-14.031-313.133 0-432.313 5.305-45.172 43.609-79.242 89.086-79.242h681.822c45.625 0 83.938 34.172 89.117 79.508l7.266 63.399c10.211 89.188 9.719 234.368-1.086 323.618l-5.484 45.344c-5.453 44.961-43.75 78.899-89.070 78.899zM649.126 447.117l-242.688 121.625v-243.258zM406.446 290.734c-6.344 0-12.672 1.727-18.258 5.195-10.242 6.305-16.492 17.508-16.492 29.555v243.258c0 12.047 6.25 23.25 16.492 29.563 10.266 6.344 23.063 6.922 33.836 1.492l242.68-121.625c11.758-5.875 19.172-17.883 19.172-31.055 0-13.164-7.414-25.18-19.172-31.047l-242.68-121.633c-4.922-2.484-10.25-3.703-15.578-3.703zM441.196 512.445v-130.656l130.367 65.328z" />
<glyph unicode="&#xe904;" glyph-name="search" d="M926.293 94.293l-120.747 120.32c56.341 69.167 90.469 158.377 90.469 255.558 0 224.331-181.856 406.187-406.187 406.187s-406.187-181.856-406.187-406.187c0-224.331 181.856-406.187 406.187-406.187 97.181 0 186.392 34.128 256.299 91.054l-0.741-0.585 120.32-120.747c7.733-7.795 18.45-12.621 30.293-12.621s22.56 4.826 30.291 12.618l0.003 0.003c7.795 7.733 12.621 18.45 12.621 30.293s-4.826 22.56-12.618 30.291l-0.003 0.003zM170.667 469.333c0 176.731 143.269 320 320 320s320-143.269 320-320c0-176.731-143.269-320-320-320v0c-176.731 0-320 143.269-320 320v0z" />
<glyph unicode="&#xe905;" glyph-name="cart" d="M775.577 198.643c-65.766 0.063-119.132-53.2-119.197-118.966s53.2-119.132 118.966-119.197c65.766-0.063 119.132 53.2 119.197 118.966 0 0.038 0 0.076 0 0.114-0.063 65.697-53.271 118.954-118.966 119.082zM986.785 768.865c-2.848 0.552-5.744 0.832-8.646 0.837h-725.048l-11.483 76.823c-7.155 51.020-50.795 88.979-102.315 88.995h-93.359c-25.368 0-45.933-20.564-45.933-45.933s20.564-45.933 45.933-45.933h93.474c5.84 0.043 10.783-4.306 11.483-10.106l70.736-484.82c9.698-61.606 62.689-107.054 125.053-107.254h477.816c60.042-0.078 111.84 42.12 123.904 100.938l74.755 372.63c4.82 24.906-11.463 49.003-36.369 53.823zM483.858 84.661c-2.797 63.837-55.481 114.090-119.381 113.868v0c-65.712-2.655-116.83-58.080-114.175-123.792 2.548-63.052 53.839-113.168 116.931-114.256h2.871c65.703 2.88 116.631 58.477 113.753 124.18z" />
<glyph unicode="&#xe906;" glyph-name="headache" d="M640 304h-13.28c47.588 28.719 83.089 73.365 99.419 126.413l0.421 1.587h1.44c39.553 0.162 71.554 32.264 71.554 71.839 0 36.756-27.604 67.066-63.213 71.327l-0.341 0.033v16.8c-0.046 35.598-8.43 69.226-23.303 99.052l0.583-1.292c40.48 9.44 70.72 24 70.72 46.24 0 32-61.28 52.64-182.080 60.96-26.454 12.025-57.368 19.034-89.92 19.034s-63.466-7.008-91.317-19.599l1.397 0.565c-120.8-8.32-182.080-28.96-182.080-60.96 0-22.24 30.24-36.8 70.72-46.24-14.29-28.534-22.674-62.162-22.72-97.745v-16.815c-38.067-2.18-68.111-33.581-68.111-72 0-39.826 32.285-72.111 72.111-72.111 1.407 0 2.805 0.040 4.192 0.12l-0.192-0.009h1.44c16.75-54.634 52.252-99.281 98.837-127.438l1.003-0.562h-13.28c0 0-0.001 0-0.002 0-105.757 0-191.544-85.506-191.998-191.157v-144.043c0-8.837 7.163-16 16-16v0h608c8.837 0 16 7.163 16 16v0 144c0 106.039-85.961 192-192 192v0zM424.48 272l62.24-74.72-61.44-30.72-35.040 105.44zM557.76 272l-45.76-55.040-45.76 55.040zM599.52 272h34.24l-35.040-105.44-61.44 30.72zM768 504c0.001-0.076 0.001-0.165 0.001-0.255 0-20.148-14.837-36.83-34.181-39.718l-0.22-0.027c1.476 9.578 2.347 20.664 2.4 31.944v47.256c18.388-3.852 32-19.932 32-39.192 0-0.003 0-0.006 0-0.009v0zM749.44 736c-15.391-8.103-33.284-14.050-52.202-16.848l-0.918-0.112c-10.516 14.993-22.156 28.055-35.138 39.645l-0.222 0.195c51.52-6.88 79.2-16.8 88.48-22.88zM660.8 713.12c-42.436-5.822-91.477-9.146-141.293-9.146-2.64 0-5.277 0.009-7.913 0.028l0.406-0.002c-2.231-0.016-4.868-0.026-7.507-0.026-49.817 0-98.858 3.324-146.913 9.761l5.62-0.616c35.48 43.271 88.941 70.663 148.8 70.663s113.32-27.393 148.532-70.326l0.268-0.337zM274.56 736c9.28 6.080 36.96 16 88.48 22.88-13.204-11.785-24.844-24.847-34.879-39.118l-0.481-0.722c-19.836 2.91-37.729 8.857-54.046 17.402l0.926-0.442zM512 672c0.922-0.003 2.014-0.004 3.105-0.004 58.445 0 115.912 4.189 172.117 12.283l-6.422-0.759c14.605-26.439 23.2-57.961 23.2-91.491 0-0.010 0-0.021 0-0.031v0.002-16c-48.547 4.549-89.91 31.71-113.869 70.711l-0.371 0.649c-2.839 4.724-7.936 7.835-13.76 7.835s-10.921-3.112-13.72-7.763l-0.040-0.072c-26.637-43.543-73.93-72.16-127.907-72.16-0.033 0-0.066 0-0.098 0h-114.235v16.8c0 0.009 0 0.019 0 0.029 0 33.529 8.595 65.051 23.701 92.483l-0.501-0.992c49.783-7.335 107.25-11.524 165.695-11.524 1.091 0 2.183 0.001 3.273 0.004h-0.168zM256 504c0 0.002 0 0.005 0 0.008 0 19.26 13.612 35.34 31.739 39.146l0.261 0.046v-47.2c0.053-11.335 0.924-22.422 2.556-33.258l-0.156 1.258c-19.564 2.915-34.401 19.597-34.401 39.745 0 0.090 0 0.179 0.001 0.269v-0.014zM320 496v48h114.72c56.983 0.18 107.775 26.53 141.011 67.655l0.269 0.345c30.723-38.27 76.023-63.747 127.346-67.957l0.654-0.043v-48c0-106.039-85.961-192-192-192s-192 85.961-192 192v0zM224 112c0.078 78.863 57.2 144.362 132.323 157.462l0.957 0.138 43.52-130.72c2.202-6.379 8.155-10.88 15.159-10.88 0.015 0 0.029 0 0.044 0h-0.002c2.631 0.016 5.107 0.665 7.289 1.802l-0.089-0.042 72.8 36.32v-182.080h-176v96h-32v-96h-64zM800-16h-64v96h-32v-96h-176v182.080l72.8-36.32c1.949-0.911 4.233-1.443 6.64-1.443s4.691 0.532 6.739 1.484l-0.099-0.041c4.283 1.765 7.569 5.208 9.085 9.488l0.035 0.112 43.52 130.72c76.132-13.247 133.28-78.826 133.28-157.753 0-0.115 0-0.23 0-0.345v0.018zM512 432c-44.183 0-80-35.817-80-80v0h32c0 26.51 21.49 48 48 48s48-21.49 48-48v0h32c0 44.183-35.817 80-80 80v0zM896 728c0 4.418 3.582 8 8 8v0h24v32h-24c-22.091 0-40-17.909-40-40v0c0-4.418-3.582-8-8-8v0h-24v-32h24c22.091 0 40 17.909 40 40v0zM128 728c0-22.091 17.909-40 40-40v0h24v32h-24c-4.418 0-8 3.582-8 8v0c0 22.091-17.909 40-40 40v0h-24v-32h24c4.418 0 8-3.582 8-8v0zM180.64 619.36l-16-16c-1.021-1.496-2.717-2.465-4.64-2.465s-3.619 0.969-4.628 2.445l-0.012 0.019c-7.105 6.773-16.746 10.941-27.36 10.941s-20.255-4.168-27.376-10.956l0.016 0.015-16-16 22.72-22.72 16 16c1.021 1.496 2.717 2.465 4.64 2.465s3.619-0.969 4.628-2.445l0.012-0.019c7.105-6.773 16.746-10.941 27.36-10.941s20.255 4.168 27.376 10.956l-0.016-0.015 16 16zM923.36 603.36c-7.105 6.773-16.746 10.941-27.36 10.941s-20.255-4.168-27.376-10.956l0.016 0.015c-1.021-1.496-2.717-2.465-4.64-2.465s-3.619 0.969-4.628 2.445l-0.012 0.019-16 16-22.72-22.72 16-16c7.105-6.773 16.746-10.941 27.36-10.941s20.255 4.168 27.376 10.956l-0.016-0.015c1.021 1.496 2.717 2.465 4.64 2.465s3.619-0.969 4.628-2.445l0.012-0.019 16-16 22.72 22.72zM288 912h32v-32h-32zM288 848h32v-32h-32zM256 880h32v-32h-32zM320 880h32v-32h-32zM704 944h32v-32h-32zM704 880h32v-32h-32zM672 912h32v-32h-32zM736 912h32v-32h-32z" />
<glyph unicode="&#xe907;" glyph-name="award" d="M888 384c0 83.947-68.053 152-152 152s-152-68.053-152-152c0-83.947 68.053-152 152-152v0c83.911 0.091 151.909 68.089 152 151.991v0.009zM736 264c-66.274 0-120 53.726-120 120s53.726 120 120 120c66.274 0 120-53.726 120-120v0c-0.091-66.237-53.762-119.909-119.991-120h-0.009zM821.28 416.8c-2.906 4.351-7.797 7.178-13.348 7.178-3.315 0-6.394-1.008-8.948-2.734l0.057 0.036-85.12-56.64-38.72 38.72c-2.78 2.391-6.423 3.847-10.407 3.847-8.837 0-16-7.163-16-16 0-3.984 1.456-7.628 3.865-10.428l-0.018 0.021 48-48c2.899-2.918 6.914-4.723 11.351-4.723 3.28 0 6.329 0.987 8.868 2.68l-0.058-0.037 96 64c4.309 2.912 7.105 7.779 7.105 13.299 0 3.268-0.98 6.307-2.662 8.84l0.037-0.059zM1011.36 131.36l-100.16 100.16c3.788 1.464 8.171 2.312 12.752 2.312 0.805 0 1.604-0.026 2.396-0.078l-0.108 0.006c0.793-0.032 1.723-0.050 2.658-0.050 38.704 0 70.080 31.376 70.080 70.080 0 20.543-8.839 39.022-22.922 51.84l-0.056 0.051c-7.711 6.995-12.534 17.054-12.534 28.24s4.823 21.245 12.502 28.212l0.032 0.028c14.274 12.881 23.207 31.446 23.207 52.097 0 38.704-31.376 70.080-70.080 70.080-1.297 0-2.585-0.035-3.865-0.105l0.178 0.008c-0.749-0.055-1.623-0.086-2.503-0.086-10.312 0-19.63 4.26-26.288 11.117l-0.009 0.009c-6.856 6.813-11.1 16.248-11.1 26.674 0 0.748 0.022 1.491 0.065 2.228l-0.005-0.102c0.020 0.626 0.032 1.363 0.032 2.102 0 38.704-31.376 70.080-70.080 70.080-20.201 0-38.406-8.547-51.195-22.223l-0.037-0.040c-5.24-5.717-12.214-9.769-20.086-11.321l-0.234-0.039v131.36c-0.037 2.025-0.445 3.944-1.158 5.707l0.038-0.107v1.6c-0.653 1.217-1.397 2.267-2.252 3.214l0.012-0.014-1.28 1.28c-0.976 0.851-2.080 1.596-3.269 2.198l-0.091 0.042h-1.44l-352 128c-1.618 0.604-3.488 0.953-5.44 0.953s-3.822-0.349-5.551-0.989l0.111 0.036-352-128h-1.44c-1.28-0.644-2.384-1.389-3.379-2.256l0.019 0.016-1.28-1.28c-0.843-0.933-1.587-1.983-2.198-3.115l-0.042-0.085v-1.6c-0.675-1.656-1.083-3.575-1.12-5.585v-480.015c0.003-6.882 4.351-12.748 10.449-15.004l0.111-0.036 352-128c1.523-0.569 3.283-0.898 5.12-0.898s3.597 0.329 5.224 0.932l-0.104-0.034 106.72 39.040-28.96-28.96c-2.923-2.9-4.733-6.919-4.733-11.36 0-8.837 7.163-16 16-16 0.033 0 0.065 0 0.098 0h79.995v-80c0-0.028 0-0.060 0-0.093 0-8.837 7.163-16 16-16 4.441 0 8.46 1.81 11.359 4.732l137.601 137.601c5.513 3.104 12.103 4.933 19.12 4.933s13.607-1.829 19.319-5.036l-0.199 0.103 137.6-137.6c2.9-2.923 6.919-4.733 11.36-4.733 8.837 0 16 7.163 16 16 0 0.033 0 0.065 0 0.098v-0.005 80h80c0.028 0 0.060 0 0.093 0 8.837 0 16 7.163 16 16 0 4.441-1.81 8.46-4.732 11.359l-0.001 0.001zM496.8 811.040l65.28-23.84-288-117.44-75.2 27.36 293.92 112c1.524 0.493 2.849 1.144 4.057 1.956l-0.057-0.036zM248 645.6v-70.88l-36.64 36.64c-2.884 2.83-6.839 4.576-11.203 4.576-1.713 0-3.363-0.269-4.911-0.768l0.113 0.032-26.88-8.96v68.32zM376 855.040l75.84-27.52-298.080-113.76-82.88 30.24zM360 158.88l-320 116.32v445.92l96-34.88v-102.24c0-0.012 0-0.027 0-0.041 0-8.837 7.163-16 16-16 1.832 0 3.593 0.308 5.232 0.875l-0.112-0.034 38.56 12.8 56.96-56.96c2.9-2.923 6.919-4.733 11.36-4.733 8.837 0 16 7.163 16 16 0 0.033 0 0.065 0 0.098v-0.005 97.92l80-29.12zM376 633.12l-56 20.32 286.4 117.12 74.4-27.040zM392 158.88v445.92l320 116.32v-100.16c-1.602 1.16-3.012 2.368-4.319 3.679l-0.001 0.001c-12.871 14.163-31.365 23.019-51.927 23.019-38.704 0-70.080-31.376-70.080-70.080 0-1.231 0.032-2.454 0.094-3.669l-0.007 0.17c0.038-0.635 0.060-1.378 0.060-2.126 0-10.426-4.244-19.861-11.098-26.672l-0.002-0.002c-6.691-6.864-16.028-11.121-26.36-11.121-0.859 0-1.71 0.029-2.554 0.087l0.114-0.006c-0.843 0.036-1.832 0.057-2.825 0.057-38.704 0-70.080-31.376-70.080-70.080 0-20.546 8.842-39.028 22.929-51.846l0.057-0.051c7.711-6.995 12.534-17.054 12.534-28.24s-4.823-21.245-12.502-28.212l-0.032-0.028c-14.274-12.881-23.207-31.446-23.207-52.097 0-38.704 31.376-70.080 70.080-70.080 1.297 0 2.585 0.035 3.865 0.105l-0.178-0.008c0.662 0.043 1.436 0.067 2.216 0.067 4.606 0 9.013-0.846 13.077-2.391l-0.253 0.084-17.6-17.6zM584 62.88v57.12c0 8.837-7.163 16-16 16v0h-57.44l72.8 72.8c1.454-3.864 2.295-8.33 2.295-12.993 0-0.72-0.020-1.436-0.060-2.146l0.004 0.099c-0.077-1.222-0.121-2.649-0.121-4.087 0-28.907 17.704-53.679 42.86-64.064l0.46-0.168c3.968-1.646 8.637-3.032 13.478-3.932l0.442-0.068zM788 164.96c-4.316 4.587-9.205 8.56-14.573 11.826l-0.307 0.174c-1.107 0.879-2.373 1.631-3.734 2.201l-0.106 0.039c-9.562 5.546-21.039 8.82-33.28 8.82s-23.718-3.273-33.603-8.992l0.323 0.173c-1.528-0.595-2.849-1.35-4.037-2.267l0.037 0.027c-5.675-3.439-10.564-7.413-14.847-11.964l-0.033-0.036c-6.982-7.569-16.949-12.294-28.021-12.294-21.031 0-38.080 17.049-38.080 38.080 0 0.441 0.007 0.88 0.022 1.317l-0.002-0.064c0.059 1.079 0.093 2.342 0.093 3.613 0 38.704-31.376 70.080-70.080 70.080-1.271 0-2.534-0.034-3.788-0.101l0.175 0.007c-0.858-0.072-1.858-0.112-2.867-0.112-15.56 0-28.855 9.7-34.168 23.382l-0.085 0.25c-1.953 4.378-3.090 9.486-3.090 14.86 0 11.148 4.893 21.153 12.649 27.984l0.041 0.035c14.21 12.875 23.099 31.4 23.099 52s-8.889 39.125-23.040 51.947l-0.059 0.053c-7.686 6.993-12.491 17.036-12.491 28.201 0 21.031 17.049 38.080 38.080 38.080 0.623 0 1.243-0.015 1.858-0.045l-0.087 0.003c1.079-0.059 2.342-0.093 3.613-0.093 38.704 0 70.080 31.376 70.080 70.080 0 1.271-0.034 2.534-0.101 3.788l0.007-0.175c-0.032 0.58-0.049 1.258-0.049 1.94 0 21.031 17.049 38.080 38.080 38.080 11.17 0 21.216-4.809 28.182-12.469l0.028-0.031c12.875-14.21 31.4-23.099 52-23.099s39.125 8.889 51.947 23.040l0.053 0.059c7.002 7.797 17.116 12.679 28.37 12.679 21.031 0 38.080-17.049 38.080-38.080 0-0.689-0.018-1.374-0.054-2.054l0.004 0.095c-0.059-1.079-0.093-2.342-0.093-3.613 0-38.704 31.376-70.080 70.080-70.080 1.271 0 2.534 0.034 3.788 0.101l-0.175-0.007c0.58 0.032 1.258 0.049 1.94 0.049 21.031 0 38.080-17.049 38.080-38.080 0-11.17-4.809-21.216-12.469-28.182l-0.031-0.028c-14.21-12.875-23.099-31.4-23.099-52s8.889-39.125 23.040-51.947l0.059-0.053c7.797-6.867 12.69-16.872 12.69-28.020 0-5.374-1.137-10.482-3.184-15.098l0.094 0.238c-5.454-13.928-18.774-23.612-34.356-23.612-0.916 0-1.825 0.033-2.725 0.099l0.12-0.007c-1.079 0.059-2.342 0.093-3.613 0.093-38.704 0-70.080-31.376-70.080-70.080 0-1.271 0.034-2.534 0.101-3.788l-0.007 0.175c0.032-0.58 0.049-1.258 0.049-1.94 0-21.031-17.049-38.080-38.080-38.080-11.17 0-21.216 4.809-28.182 12.469l-0.028 0.031zM904 136c-8.837 0-16-7.163-16-16v0-57.44l-58.72 58.72c5.242 1.046 9.849 2.482 14.235 4.339l-0.475-0.179c25.617 10.554 43.321 35.326 43.321 64.233 0 1.438-0.044 2.866-0.13 4.282l0.009-0.195c-0.035 0.612-0.055 1.327-0.055 2.047 0 4.663 0.842 9.129 2.381 13.255l-0.086-0.262 72.8-72.8z" />
<glyph unicode="&#xe908;" glyph-name="satisfaction" d="M456.58 178l-73.76 19.74c-6.74 1.8-10.74 8.76-8.92 15.52l20.36 76.020c3 11.2 1.44 22.92-4.36 32.98-5.82 10.080-15.18 17.28-26.4 20.28-11.2 3-22.92 1.44-32.98-4.36-10.080-5.82-17.28-15.18-20.26-26.38l-14.26-52.98c-6.22-23.28-26.6-39.040-50.7-39.22l-29.76-0.18 0.94 3.5c2.44 8.96 1.22 18.36-3.46 26.44-4.64 8.020-12.1 13.78-21.1 16.22l-75.2 20.12c-18.52 4.96-37.64-6.080-42.58-24.58l-55.54-207.42c-2.4-8.94-1.16-18.3 3.5-26.34 4.64-8.040 12.14-13.8 21.080-16.18l75.22-20.2c2.98-0.8 5.98-1.16 8.92-1.16 15.38 0 29.5 10.28 33.64 25.8l0.44 1.68 25.46-18.28c14.84-10.66 29.36-17.54 47.080-22.3l146.38-39.24c3.74-1 7.52-1.48 11.22-1.48 19.2 0 36.82 12.84 42.040 32.24 2.14 8 1.96 16.26-0.44 24.020 0.52 0.28 1.020 0.56 1.54 0.84 10.080 5.82 17.28 15.18 20.28 26.4 1.82 6.84 1.92 13.74 0.54 20.24 12.66 4.78 22.92 15.38 26.68 29.42 3 11.2 1.44 22.92-4.36 32.98-0.58 1.020-1.22 2-1.88 2.96 5.3 5.24 9.34 11.9 11.4 19.62 3 11.2 1.44 22.92-4.36 33-5.82 10.080-15.2 17.3-26.4 20.28zM126.64 21.88l-75.2 20.18c-0.9 0.24-1.4 0.84-1.66 1.28-0.26 0.46-0.54 1.2-0.3 2.1l55.56 207.46c0.32 1.2 1.52 2.040 2.76 2.040 0.22 0 0.46-0.020 0.68-0.080l75.1-20.1c1-0.28 1.54-0.98 1.76-1.36 0.26-0.44 0.52-1.16 0.26-2.080l-55.56-207.4c-0.38-1.52-1.94-2.42-3.4-2.040zM456.44 132.98c-1.62-6.020-8.060-9.74-14.080-8.16l-58.96 15.82c-8.52 2.28-17.3-2.78-19.58-11.3s2.78-17.3 11.3-19.58l68.040-18.26c2.94-0.78 5.42-2.7 6.96-5.36 1.54-2.68 1.96-5.78 1.18-8.74-1.64-6.12-7.94-9.76-14.1-8.14l-68.080 18.26c-8.54 2.28-17.3-2.78-19.58-11.3s2.78-17.3 11.3-19.58l54.72-14.68c0.14-0.040 0.26-0.1 0.4-0.12h0.040c6.1-1.66 9.74-7.96 8.1-14.1-0.78-2.94-2.7-5.42-5.36-6.96-2.68-1.54-5.78-1.96-8.7-1.18l-6.98 1.88c-0.060 0.020-0.12 0.040-0.2 0.060-0.1 0.020-0.2 0.040-0.3 0.060l-47.66 12.76c-8.54 2.28-17.3-2.78-19.58-11.32s2.78-17.3 11.32-19.58l48.16-12.88c2.84-0.82 5.24-2.68 6.76-5.32 1.56-2.7 1.98-5.82 1.18-8.76-1.62-6.020-8.1-9.76-14.1-8.16l-146.38 39.22c-14 3.76-24.98 8.96-36.72 17.38l-35.28 25.34 36.72 137.1 38.54 0.22c38.7 0.28 71.42 25.58 81.38 62.92l14.24 52.96c0.78 2.94 2.7 5.42 5.36 6.96 2.68 1.54 5.78 1.96 8.74 1.18 2.94-0.78 5.42-2.7 6.96-5.36 1.54-2.68 1.96-5.78 1.18-8.74l-20.36-76.020c-6.36-23.78 7.78-48.3 31.6-54.68l73.72-19.72c2.94-0.78 5.4-2.7 6.96-5.38 1.52-2.68 1.94-5.8 1.14-8.74zM152.98 208.68l-0.62-2.26c-1.94-7.1-8.38-11.76-15.4-11.76-1.4 0-2.82 0.18-4.24 0.58-8.52 2.34-13.52 11.14-11.18 19.66l0.62 2.26c2.34 8.52 11.14 13.52 19.66 11.18s13.5-11.16 11.16-19.66zM1005.4 53.7l-55.56 207.42c-4.94 18.5-24.060 29.54-42.58 24.58h-0.020l-75.24-20.12c-18.54-5.060-29.52-24.18-24.5-42.58l0.96-3.58-29.74 0.18c-24.12 0.18-44.5 15.94-50.72 39.24l-14.22 52.94c-3 11.2-10.2 20.58-20.28 26.4-10.060 5.82-21.78 7.36-32.98 4.36s-20.58-10.2-26.4-20.28c-5.82-10.060-7.36-21.78-4.36-32.98l20.36-76.020c1.8-6.76-2.2-13.72-8.88-15.5l-73.8-19.74c-23.16-6.2-36.96-30.12-30.76-53.32 2.060-7.7 6.080-14.36 11.4-19.6-0.66-0.96-1.28-1.94-1.86-2.96-5.82-10.060-7.36-21.78-4.36-32.98 3.76-14.040 14.020-24.64 26.68-29.44-1.38-6.5-1.3-13.38 0.54-20.22 3-11.2 10.2-20.58 20.28-26.4 0.5-0.3 1.020-0.58 1.54-0.84-2.4-7.74-2.58-16.020-0.44-24.020 5.2-19.4 22.82-32.22 42.020-32.22 3.7 0 7.48 0.48 11.24 1.48l146.38 39.24c17.66 4.74 32.2 11.62 47.14 22.3l25.4 18.26 0.44-1.64c4.16-15.54 18.24-25.82 33.62-25.82 2.96 0 5.98 0.38 8.98 1.18l75.16 20.18c18.46 4.9 29.5 23.98 24.56 42.5zM818.56 25c-11.8-8.44-22.82-13.64-36.8-17.4l-146.38-39.24c-6.020-1.62-12.48 2.12-14.1 8.14-0.8 2.96-0.38 6.080 1.18 8.78 1.52 2.62 3.92 4.5 6.78 5.32l48.14 12.88c8.52 2.28 13.6 11.040 11.32 19.58-2.28 8.52-11.060 13.6-19.58 11.32l-47.68-12.76c-0.1-0.020-0.18-0.040-0.28-0.060l-0.18-0.040-6.96-1.88c-2.96-0.8-6.060-0.38-8.74 1.18-2.68 1.54-4.58 4.020-5.36 6.96-1.64 6.12 2 12.44 8.1 14.1h0.040c0.14 0.040 0.26 0.080 0.4 0.12l54.72 14.68c8.52 2.28 13.58 11.060 11.3 19.58s-11.060 13.58-19.58 11.3l-68.080-18.26c-6.14-1.64-12.46 2.020-14.080 8.14-0.8 2.96-0.38 6.060 1.18 8.74 1.54 2.68 4.020 4.58 6.98 5.38l68.020 18.26c8.52 2.28 13.58 11.060 11.3 19.58s-11.060 13.58-19.58 11.3l-58.96-15.82c-6.020-1.6-12.48 2.12-14.080 8.14-1.62 6.060 2.1 12.54 8.14 14.16l73.74 19.72c23.76 6.36 37.92 30.88 31.54 54.68l-20.36 76.020c-0.8 2.96-0.38 6.060 1.18 8.74 1.54 2.68 4.020 4.58 6.96 5.36 2.96 0.78 6.060 0.38 8.74-1.18 2.68-1.54 4.58-4.020 5.38-6.98l14.22-52.92c9.98-37.38 42.68-62.66 81.4-62.94l38.52-0.22 36.74-137.1zM972.54 42.060l-75.16-20.18c-1.44-0.4-3.060 0.56-3.44 2.020l-55.58 207.46c-0.38 1.42 0.54 2.98 1.98 3.36l75.16 20.12c0.92 0.24 1.68-0.020 2.16-0.3 0.46-0.26 1.060-0.76 1.3-1.66l55.56-207.42c0.38-1.46-0.52-3.020-1.98-3.4zM902.46 214.88c2.34-8.52-2.66-17.32-11.18-19.66-1.42-0.38-2.84-0.58-4.24-0.58-7.020 0-13.46 4.66-15.4 11.76l-0.62 2.26c-2.34 8.52 2.66 17.32 11.18 19.66s17.32-2.66 19.66-11.18zM706.32 516.78c0 107.12-87.18 194.28-194.34 194.28-107.12 0-194.28-87.16-194.28-194.28s87.16-194.28 194.28-194.28c107.16 0 194.34 87.16 194.34 194.28zM349.66 516.78c0 89.5 72.82 162.32 162.32 162.32 89.54 0 162.36-72.82 162.36-162.32 0-43.94-17.58-83.84-46.060-113.080-15 37.62-42.38 66.18-75.18 79.36 17.46 12.72 28.82 33.3 28.82 56.52 0 38.58-31.36 69.96-69.9 69.96-38.58 0-69.96-31.38-69.96-69.96 0-23.2 11.38-43.8 28.86-56.52-32.82-13.18-60.2-41.74-75.22-79.38-28.46 29.26-46.040 69.16-46.040 113.1zM512.020 501.64c-20.94 0-37.98 17.020-37.98 37.92 0 20.94 17.040 37.98 37.98 37.98 20.92 0 37.92-17.040 37.92-37.98 0.020-20.9-17-37.92-37.92-37.92zM421.86 381.86c14.3 45.98 50.2 77.28 90.16 77.28 39.92 0 75.8-31.28 90.1-77.26-25.8-17.3-56.82-27.4-90.16-27.4-33.3-0.020-64.3 10.080-90.1 27.38zM406.62 866.26l45.78-33.14-17.58-53.78c-2.16-6.6 0.18-13.82 5.8-17.9s13.22-4.080 18.82 0.020l45.68 33.32 45.68-33.32c2.8-2.040 6.12-3.080 9.42-3.080s6.6 1.020 9.4 3.060c5.62 4.080 7.96 11.3 5.8 17.9l-17.58 53.76 45.82 33.14c5.62 4.060 7.98 11.3 5.84 17.9s-8.28 11.060-15.2 11.060h-0.020l-56.54-0.1-17.4 53.82c-2.14 6.62-8.3 11.080-15.22 11.080-6.94 0-13.080-4.48-15.22-11.080l-17.34-53.82-56.56 0.1c-6.92 0-13.060-4.46-15.2-11.040-2.16-6.6 0.2-13.82 5.82-17.9zM484.16 863.12h0.020c6.94 0 13.080 4.48 15.22 11.080l5.72 17.76 5.74-17.78c2.14-6.6 8.28-11.080 15.22-11.080h0.020l18.66 0.040-15.14-10.94c-5.64-4.080-7.98-11.32-5.82-17.92l5.82-17.8-15.1 11.020c-2.8 2.040-6.12 3.080-9.42 3.080s-6.62-1.020-9.42-3.080l-15.1-11.020 5.82 17.8c2.16 6.6-0.2 13.84-5.82 17.92l-15.12 10.94zM164.66 671.76l-28.4-48.92c-3.48-6-2.7-13.56 1.94-18.72s12.080-6.74 18.42-3.9l51.6 23.12 37.8-42.12c3.1-3.46 7.46-5.32 11.9-5.32 2.2 0 4.4 0.46 6.5 1.38 6.34 2.82 10.14 9.4 9.4 16.3l-6.020 56.26 51.7 22.88c6.34 2.8 10.16 9.38 9.42 16.28-0.72 6.9-5.82 12.54-12.6 13.98l-55.36 11.66-5.78 56.26c-0.7 6.9-5.8 12.56-12.58 14s-13.72-1.66-17.18-7.68l-28.2-49.080-55.26 11.88c-6.78 1.46-13.74-1.62-17.2-7.64-3.48-6-2.66-13.56 1.98-18.72zM201.9 694.48c6.78-1.46 13.76 1.64 17.22 7.66l9.32 16.22 1.9-18.56c0.72-6.92 5.8-12.58 12.62-14.020l18.3-3.86-17.060-7.56c-6.36-2.82-10.16-9.4-9.42-16.32l2-18.64-12.52 13.96c-3.1 3.46-7.46 5.32-11.9 5.32-2.2 0-4.42-0.46-6.54-1.4l-17-7.62 9.36 16.12c3.48 6.020 2.7 13.58-1.96 18.74l-12.52 13.86zM697.62 684.66l51.7-22.94-6.020-56.22c-0.74-6.9 3.060-13.48 9.4-16.3 2.1-0.94 4.3-1.38 6.5-1.38 4.44 0 8.8 1.86 11.9 5.32l37.8 42.12 51.6-23.12c6.34-2.84 13.78-1.26 18.42 3.9s5.44 12.72 1.94 18.72l-28.38 48.92 37.92 41.98c4.66 5.14 5.46 12.7 1.98 18.72-3.48 6-10.42 9.080-17.2 7.64l-55.26-11.9-28.2 49.020c-3.46 6.020-10.4 9.12-17.18 7.66-6.78-1.44-11.86-7.1-12.58-14l-5.78-56.2-55.36-11.66c-6.78-1.42-11.88-7.080-12.6-13.96-0.74-6.92 3.060-13.5 9.4-16.32zM774.18 697.7c6.8 1.44 11.9 7.1 12.62 14l1.9 18.54 9.32-16.2c3.46-6.020 10.42-9.12 17.22-7.66l18.22 3.92-12.52-13.86c-4.66-5.16-5.46-12.74-1.96-18.74l9.36-16.12-17 7.62c-6.34 2.84-13.8 1.26-18.44-3.92l-12.52-13.96 1.98 18.58c0.74 6.9-3.060 13.5-9.42 16.32l-17.14 7.6z" />
<glyph unicode="&#xe909;" glyph-name="add" d="M621.714 539.429c-10.098 0-18.286 8.187-18.286 18.286v402.286h-182.857v-402.286c0-10.098-8.187-18.286-18.286-18.286h-402.286v-182.857h402.286c10.098 0 18.286-8.187 18.286-18.286v-402.286h182.857v402.286c0 10.098 8.187 18.286 18.286 18.286h402.286v182.857z" />
<glyph unicode="&#xe90a;" glyph-name="plus" d="M544 832v-352h352v-64h-352v-352h-64v352h-352v64h352v352z" />
<glyph unicode="&#xe90b;" glyph-name="minus" d="M880 480h-736v-64h736z" />
<glyph unicode="&#xe90c;" glyph-name="up-right-arrow" d="M853.76 836.256h-592.16c-17.673 0-32-14.327-32-32s14.327-32 32-32v0h529.408l-656.608-656.64c-6.36-5.867-10.329-14.243-10.329-23.545 0-17.673 14.327-32 32-32 9.303 0 17.678 3.97 23.525 10.307l0.020 0.022 656.64 656.64v-529.44c0-17.673 14.327-32 32-32s32 14.327 32 32v0 592.128c-0.036 25.671-20.828 46.473-46.491 46.528h-0.005z" />
<glyph unicode="&#xe90d;" glyph-name="up-right-arrow-1" d="M868.48 96.16v725.28h-725.28v-46.88h645.28l-660-660 33.12-33.12 660 660v-645.28z" />
<glyph unicode="&#xe90e;" glyph-name="right-arrow" d="M233.372 726.628c12.497 12.497 32.758 12.497 45.255 0l512-512c12.496-12.496 12.496-32.758 0-45.254s-32.758-12.496-45.254 0l-512 512c-12.497 12.497-12.497 32.758 0 45.255zM768 640c17.674 0 32-14.326 32-32v-416c0-17.674-14.326-32-32-32h-416c-17.674 0-32 14.326-32 32s14.326 32 32 32h384v384c0 17.674 14.326 32 32 32z" />
<glyph unicode="&#xe90f;" glyph-name="play" d="M837.44 564.16l-549.44 317.44c-14.828 8.917-32.696 14.249-51.798 14.4h-0.042c-59.735 0-108.16-48.425-108.16-108.16v0-681.28c0.012-58.843 47.716-106.54 106.56-106.54 20.996 0 40.574 6.072 57.073 16.557l-0.433-0.257 550.080 347.52c33.149 20.989 54.837 57.466 54.837 99.009 0 43.117-23.363 80.777-58.12 101.012l-0.557 0.299z" />
<glyph unicode="&#xe910;" glyph-name="checked" d="M298.667 64h426.667c94.257 0 170.667 76.41 170.667 170.667v0 206.933c0 23.564-19.103 42.667-42.667 42.667s-42.667-19.103-42.667-42.667v0-206.933c0-47.128-38.205-85.333-85.333-85.333v0h-426.667c-47.128 0-85.333 38.205-85.333 85.333v0 426.667c0 47.128 38.205 85.333 85.333 85.333v0h213.333c23.564 0 42.667 19.103 42.667 42.667s-19.103 42.667-42.667 42.667v0h-213.333c-94.257 0-170.667-76.41-170.667-170.667v0-426.667c0-94.257 76.41-170.667 170.667-170.667v0zM865.707 776.96l-353.707-354.133-140.373 140.8c-7.753 7.753-18.463 12.548-30.293 12.548-23.661 0-42.841-19.181-42.841-42.841 0-11.83 4.795-22.541 12.548-30.293l170.667-170.667c7.733-7.795 18.45-12.621 30.293-12.621s22.56 4.826 30.291 12.618l384.003 384.003c7.753 7.753 12.548 18.463 12.548 30.293 0 23.661-19.181 42.841-42.841 42.841-11.83 0-22.541-4.795-30.293-12.548v0z" />
<glyph unicode="&#xe911;" glyph-name="share" d="M812 296c-59.282 0-111.522-29.162-144.334-73.51l-283.686 145.262c4.71 16.054 8.020 32.692 8.020 50.248 0 23.812-4.882 46.45-13.316 67.272l296.89 178.656c33.040-38.776 81.604-63.928 136.426-63.928 99.258 0 180 80.742 180 180s-80.742 180-180 180c-99.258 0-180-80.742-180-180 0-22.874 4.71-44.572 12.524-64.716l-297.774-179.18c-33.012 37.624-80.876 61.896-134.75 61.896-99.258 0-180-80.742-180-180s80.742-180 180-180c60.26 0 113.382 30.018 146.070 75.612l282.752-144.79c-5.208-16.812-8.822-34.322-8.822-52.822 0-99.258 80.742-180 180-180s180 80.742 180 180c0 99.258-80.742 180-180 180z" />
<glyph unicode="&#xe912;" glyph-name="down-arrow" d="M690.278 495.002l-28.877 28.877-149.402-149.299-149.402 149.299-28.877-28.877 178.278-178.381z" />
<glyph unicode="&#xe913;" glyph-name="down-arrow-1" d="M512 256c-8.184 0-16.376 3.128-22.624 9.376l-320 320c-12.504 12.504-12.504 32.752 0 45.248s32.752 12.504 45.248 0l297.376-297.376 297.376 297.376c12.504 12.504 32.752 12.504 45.248 0s12.504-32.752 0-45.248l-320-320c-6.248-6.248-14.44-9.376-22.624-9.376z" />
<glyph unicode="&#xe914;" glyph-name="send" d="M1023.306 856.651c4.992 23.238-17.79 42.832-40.014 34.352l-963.991-367.996c-11.602-4.43-19.276-15.55-19.3-27.968-0.024-12.42 7.606-23.57 19.192-28.044l270.803-104.589v-329.423c0-13.896 9.542-25.972 23.062-29.186 13.43-3.194 27.434 3.196 33.73 15.686l112.001 222.254 273.325-202.844c16.626-12.34 40.524-4.492 46.574 15.338 255.196 836.706 244.164 800.318 244.618 802.42zM785.346 751.216l-469.601-334.435-202.054 78.035zM349.997 367.516l409.332 291.511c-352.225-371.576-333.829-352.019-335.365-354.087-2.282-3.070 3.97 8.896-73.967-145.763zM733.709 112.426l-240.59 178.55 435.018 458.92z" />
<glyph unicode="&#xe915;" glyph-name="phone" d="M582.882 959.999c-11.047 0-20-8.953-20-20s8.953-20 20-20c221.179 0 401.117-179.945 401.117-401.117 0-11.047 8.961-20 20-20 11.047 0 20 8.953 20 20 0 243.226-197.883 441.117-441.117 441.117zM883.686 498.875c11.047 0 20 8.961 20 20 0 176.898-143.914 320.812-320.804 320.812-11.047 0-20-8.961-20-20 0-11.047 8.953-20 20-20 154.836 0 280.804-125.969 280.804-280.812 0-11.039 8.953-20 20-20zM743.351 518.875c0-11.039 8.953-20 20-20s20 8.961 20 20c0 110.539-89.93 200.468-200.468 200.468-11.047 0-20-8.953-20-19.992 0-11.047 8.953-20 20-20 88.484 0 160.469-71.984 160.469-160.476zM562.882 579.031c0-11.039 8.953-19.992 20-19.992 22.141 0 40.156-18.016 40.156-40.164 0-11.039 8.953-20 20-20 11.039 0 20 8.961 20 20 0 44.203-35.961 80.156-80.156 80.156-11.047 0-20-8.953-20-20zM374.867 310.641c0-11.047-8.953-20-20-20s-20 8.953-20 20c0 11.039 8.953 20 20 20s20-8.961 20-20zM548.062-39.718c91.070-44.633 200.633-26.062 272.648 45.953l41.352 41.352c22.453 22.43 22.461 58.766 0.008 81.211l-159.781 159.765c-22.414 22.445-58.758 22.477-81.195 0.008l-67.891-67.898c-13.297-13.297-33.82-16.008-48.789-6.453-24.406 15.602-48.148 32.805-70.562 51.133-8.555 6.992-21.148 5.727-28.141-2.82-6.992-8.555-5.727-21.156 2.82-28.141 23.617-19.312 48.625-37.437 74.351-53.875 30.664-19.586 72.133-14.594 98.601 11.875l67.906 67.906c6.789 6.797 17.789 6.812 24.609-0.008l159.789-159.773c6.805-6.812 6.82-17.828 0-24.633l-41.359-41.367c-59.992-59.992-151.117-75.391-226.765-38.32-277.132 135.898-427.913 351.382-505.601 508.226-37.164 75.008-21.734 165.789 38.398 225.906l40.453 40.445c6.781 6.797 17.789 6.82 24.602-0.008l159.804-159.797c6.766-6.758 6.836-17.773-0.016-24.609l-67.891-67.898c-26.469-26.469-31.461-67.937-11.875-98.609 11.539-18.055 23.977-35.867 36.977-52.937 6.687-8.789 19.234-10.484 28.023-3.797s10.492 19.234 3.797 28.031c-12.328 16.195-24.141 33.102-35.094 50.234-9.555 14.977-6.844 35.5 6.453 48.797l67.883 67.883c22.445 22.414 22.469 58.766 0.016 81.195l-159.789 159.781c-22.406 22.445-58.758 22.477-81.187 0.008l-40.437-40.437c-72.281-72.258-90.75-181.547-45.961-271.945 80.445-162.398 236.617-385.539 523.843-526.382z" />
<glyph unicode="&#xe916;" glyph-name="prev" d="M55.168 417.835l298.667-298.667c7.665-7.41 18.12-11.977 29.641-11.977 23.564 0 42.667 19.103 42.667 42.667 0 11.521-4.567 21.976-11.989 29.653l-225.823 225.823h750.336c23.564 0 42.667 19.103 42.667 42.667s-19.103 42.667-42.667 42.667v0h-750.336l225.835 225.835c8.036 7.769 13.026 18.647 13.026 30.69 0 23.564-19.103 42.667-42.667 42.667-12.043 0-22.92-4.989-30.678-13.014l-298.679-298.679c-7.718-7.721-12.492-18.386-12.492-30.165s4.774-22.445 12.492-30.165v0z" />
<glyph unicode="&#xe917;" glyph-name="next" d="M968.832 478.165l-298.667 298.667c-7.665 7.41-18.12 11.977-29.641 11.977-23.564 0-42.667-19.103-42.667-42.667 0-11.521 4.567-21.976 11.989-29.653l225.823-225.823h-750.336c-23.564 0-42.667-19.103-42.667-42.667s19.103-42.667 42.667-42.667v0h750.336l-225.835-225.835c-8.036-7.769-13.026-18.647-13.026-30.69 0-23.564 19.103-42.667 42.667-42.667 12.043 0 22.92 4.989 30.678 13.014l298.679 298.679c7.718 7.721 12.492 18.386 12.492 30.165s-4.774 22.445-12.492 30.165v0z" />
<glyph unicode="&#xe918;" glyph-name="arrow-right" d="M810.667 405.333h-597.333c-25.6 0-42.667 17.067-42.667 42.667s17.067 42.667 42.667 42.667h597.333c25.6 0 42.667-17.067 42.667-42.667s-17.067-42.667-42.667-42.667zM554.667 149.333c-12.8 0-21.333 4.267-29.867 12.8-17.067 17.067-17.067 42.667 0 59.733l256 256c17.067 17.067 42.667 17.067 59.733 0s17.067-42.667 0-59.733l-256-256c-8.533-8.533-17.067-12.8-29.867-12.8zM810.667 405.333c-12.8 0-21.333 4.267-29.867 12.8l-256 256c-17.067 17.067-17.067 42.667 0 59.733s42.667 17.067 59.733 0l256-256c17.067-17.067 17.067-42.667 0-59.733-8.533-8.533-17.067-12.8-29.867-12.8z" />
<glyph unicode="&#xe919;" glyph-name="reply" d="M992 21.333c-11.52 0-22.357 6.229-28.075 16.683l-0.896 1.621c-95.701 172.843-278.059 280.363-475.861 280.363h-60.501v-181.333c0-12.843-7.723-24.448-19.541-29.483-11.733-4.949-25.557-2.475-34.731 6.528l-362.667 352c-6.229 6.016-9.728 14.293-9.728 22.955s3.499 16.939 9.728 22.955l362.667 352c9.216 8.96 22.997 11.52 34.731 6.528 11.819-5.035 19.541-16.64 19.541-29.483v-181.419c330.368-5.717 597.333-276.224 597.333-607.915 0-14.635-9.899-27.392-24.064-31.019-2.645-0.683-5.291-0.981-7.936-0.981zM394.667 384h92.501c178.176 0 345.131-78.037 459.264-209.536-55.211 241.877-272.085 422.869-530.432 422.869h-21.333c-17.664 0-32 14.336-32 32v137.685l-284.715-276.352 284.715-276.352v137.685c0 17.664 14.336 32 32 32z" />
<glyph unicode="&#xe91a;" glyph-name="pdf" d="M889.75 740.416l-213.334 213.334c-4 4-9.416 6.25-15.084 6.25h-448c-47.062 0-85.332-38.27-85.332-85.334v-853.334c0-47.062 38.27-85.332 85.334-85.332h597.334c47.062 0 85.332 38.27 85.332 85.334v704c0 5.666-2.25 11.082-6.25 15.082zM682.666 887.166l140.5-140.5h-97.834c-23.52 0-42.666 19.146-42.666 42.666v97.834zM853.334 21.334c0-23.52-19.146-42.666-42.666-42.666h-597.334c-23.52 0-42.666 19.146-42.666 42.666v853.332c0 23.52 19.146 42.666 42.666 42.666h426.666v-128c0-47.062 38.27-85.332 85.334-85.332h128v-682.666zM620.77 333.73c-19.75 15.542-38.52 31.52-51.020 44.020-16.25 16.25-30.73 32-43.312 47 19.626 60.646 28.23 91.916 28.23 108.584 0 70.812-25.584 85.334-64 85.334-29.188 0-64-15.166-64-87.376 0-31.834 17.438-70.48 52-115.396-8.458-25.812-18.396-55.584-29.562-89.146-5.376-16.104-11.208-31.020-17.376-44.812-5.020-2.23-9.896-4.5-14.604-6.854-16.958-8.48-33.062-16.104-48-23.188-68.126-32.25-113.126-53.584-113.126-95.708 0-30.584 33.23-49.52 64-49.52 39.666 0 99.562 52.98 143.312 142.23 45.416 17.916 101.876 31.188 146.438 39.5 35.708-27.458 75.146-53.73 94.25-53.73 52.896 0 64 30.584 64 56.23 0 50.438-57.626 50.438-85.334 50.438-8.604-0.002-31.686-2.544-61.896-7.606zM320 149.334c-12.188 0-20.438 5.75-21.334 6.854 0 15.126 45.104 36.5 88.73 57.166 2.77 1.312 5.584 2.626 8.438 3.98-32.042-46.46-63.73-68-75.834-68zM469.334 531.292c0 44.708 13.876 44.708 21.334 44.708 15.084 0 21.334 0 21.334-42.666 0-9-6-31.5-16.98-66.626-16.752 25.792-25.688 47.896-25.688 64.584zM485.688 302c1.334 3.708 2.626 7.458 3.876 11.25 7.916 23.75 15.042 45.084 21.396 64.292 8.854-9.75 18.396-19.73 28.626-29.958 4-4 13.916-13 27.126-24.27-26.296-5.73-54.274-12.834-81.024-21.314zM725.334 290.896c0-9.584 0-13.562-19.792-13.688-5.812 1.25-19.25 9.166-35.834 20.458 6.020 0.666 10.458 1 12.958 1 31.522 0 40.46-3.082 42.668-7.77z" />
<glyph unicode="&#xe91b;" glyph-name="file" d="M552.96 960h-409.6c-11.304 0-20.48-9.176-20.48-20.48v-983.040c0-11.304 9.176-20.48 20.48-20.48h737.28c11.304 0 20.48 9.176 20.48 20.48v655.36c0 94.372-253.788 348.16-348.16 348.16zM860.16-23.040h-696.32v942.080h389.12c71.762 0 307.2-235.438 307.2-307.2v-634.88zM868.352 673.28h-253.952v253.952c0 11.346-9.176 20.48-20.48 20.48-11.306 0-20.48-9.176-20.48-20.48v-274.432c0-11.306 9.176-20.48 20.48-20.48h274.432c11.346 0 20.48 9.174 20.48 20.48 0 11.304-9.176 20.48-20.48 20.48z" />
<glyph unicode="&#xe91c;" glyph-name="checked-1" d="M512 960c-282.306 0-512-229.694-512-512s229.694-512 512-512 512 229.694 512 512-229.694 512-512 512zM798.155 582.737l-327.218-324.652c-19.248-19.248-50.045-20.531-70.576-1.283l-173.233 157.835c-20.531 19.248-21.815 51.328-3.85 71.86 19.248 20.531 51.328 21.815 71.86 2.566l137.303-125.754 292.571 292.571c20.531 20.531 52.612 20.531 73.143 0s20.531-52.612 0-73.143z" />
<glyph unicode="&#xe91d;" glyph-name="right-chevron" d="M271.941 959.996l511.994-511.994-511.994-512.002-32.457 32.448 479.554 479.554-479.554 479.546z" />
<glyph unicode="&#xe91e;" glyph-name="left-chevron" d="M752.059-63.996l-511.994 511.994 511.994 512.002 32.457-32.448-479.554-479.554 479.554-479.546z" />
<glyph unicode="&#xe91f;" glyph-name="antiseptic" d="M396.8 137.6h-64c-6.4 0-12.8 4.8-12.8 12.8v57.6h-57.6c-6.4 0-12.8 4.8-12.8 12.8v64c0 6.4 4.8 12.8 12.8 12.8h57.6v59.2c0 6.4 4.8 12.8 12.8 12.8h64c6.4 0 12.8-4.8 12.8-12.8v-59.2h57.6c6.4 0 12.8-4.8 12.8-12.8v-64c0-6.4-4.8-12.8-12.8-12.8h-57.6v-59.2c0-6.4-6.4-11.2-12.8-11.2zM345.6 161.6h40v59.2c0 6.4 4.8 12.8 12.8 12.8h57.6v38.4h-57.6c-6.4 0-12.8 4.8-12.8 12.8v59.2h-40v-59.2c0-6.4-4.8-12.8-12.8-12.8h-57.6v-40h57.6c6.4 0 12.8-4.8 12.8-12.8zM521.6-38.4h-308.8c-43.2 0-76.8 33.6-76.8 76.8v411.2c0 22.4 8 41.6 22.4 56l88 88c9.6 9.6 14.4 24 14.4 38.4v40c0 6.4 4.8 12.8 12.8 12.8s12.8-4.8 12.8-12.8v-38.4c0-20.8-8-41.6-22.4-56l-88-88c-9.6-9.6-14.4-22.4-14.4-38.4v-411.2c0-30.4 24-52.8 52.8-52.8h308.8c30.4 0 52.8 24 52.8 52.8v412.8c0 14.4-6.4 28.8-14.4 38.4l-88 88c-14.4 14.4-22.4 33.6-22.4 56v36.8c0 6.4 4.8 12.8 12.8 12.8s12.8-4.8 12.8-12.8v-36.8c0-16 4.8-28.8 14.4-38.4l88-88c14.4-14.4 22.4-35.2 22.4-56v-414.4c-1.6-43.2-35.2-76.8-80-76.8zM475.2 657.6h-217.6c-19.2 0-32 14.4-32 32v38.4c0 19.2 14.4 32 32 32h217.6c17.6 0 32-14.4 32-32v-38.4c0-19.2-12.8-32-32-32zM257.6 737.6c-6.4 0-8-3.2-8-8v-38.4c0-6.4 3.2-8 8-8h217.6c6.4 0 8 3.2 8 8v38.4c0 6.4-4.8 8-8 8zM452.8 737.6c-6.4 0-12.8 4.8-12.8 12.8v57.6c0 1.6 0 1.6-1.6 1.6h-144c-1.6 0-1.6 0-1.6-1.6v-59.2c0-6.4-4.8-12.8-12.8-12.8s-12.8 4.8-12.8 12.8v59.2c0 14.4 11.2 25.6 25.6 25.6h144c14.4 0 25.6-11.2 25.6-25.6v-59.2c1.6-6.4-3.2-11.2-9.6-11.2zM408 811.2c-6.4 0-12.8 4.8-12.8 12.8v84.8c0 1.6 0 1.6-1.6 1.6h-52.8c-1.6 0-1.6 0-1.6-1.6v-86.4c0-6.4-4.8-12.8-12.8-12.8s-12.8 6.4-12.8 12.8v86.4c0 14.4 11.2 25.6 25.6 25.6h52.8c14.4 0 25.6-11.2 25.6-25.6v-86.4c1.6-6.4-3.2-11.2-9.6-11.2zM585.6 417.6h-440c-6.4 0-12.8 4.8-12.8 12.8s4.8 12.8 12.8 12.8h440c6.4 0 12.8-4.8 12.8-12.8s-6.4-12.8-12.8-12.8zM585.6 64h-440c-6.4 0-12.8 4.8-12.8 12.8s4.8 12.8 12.8 12.8h440c6.4 0 12.8-4.8 12.8-12.8s-6.4-12.8-12.8-12.8zM536 832c-24 0-43.2 19.2-43.2 43.2s19.2 43.2 43.2 43.2 43.2-19.2 43.2-43.2-19.2-43.2-43.2-43.2zM536 892.8c-9.6 0-19.2-8-19.2-19.2s8-19.2 19.2-19.2 19.2 8 19.2 19.2-8 19.2-19.2 19.2zM649.6 849.6c-24 0-43.2 19.2-43.2 43.2s19.2 43.2 43.2 43.2 43.2-19.2 43.2-43.2-20.8-43.2-43.2-43.2zM649.6 910.4c-9.6 0-19.2-8-19.2-19.2s8-19.2 19.2-19.2 19.2 8 19.2 19.2-9.6 19.2-19.2 19.2zM787.2 849.6c-24 0-43.2 19.2-43.2 43.2s19.2 43.2 43.2 43.2 43.2-19.2 43.2-43.2-20.8-43.2-43.2-43.2zM787.2 910.4c-9.6 0-19.2-8-19.2-19.2s8-19.2 19.2-19.2 19.2 8 19.2 19.2-9.6 19.2-19.2 19.2zM612.8 737.6c-24 0-43.2 19.2-43.2 43.2s19.2 43.2 43.2 43.2 43.2-19.2 43.2-43.2-20.8-43.2-43.2-43.2zM612.8 798.4c-9.6 0-19.2-8-19.2-19.2s8-19.2 19.2-19.2 19.2 8 19.2 19.2-9.6 19.2-19.2 19.2zM848 688c-24 0-43.2 19.2-43.2 43.2s19.2 43.2 43.2 43.2 43.2-19.2 43.2-43.2-19.2-43.2-43.2-43.2zM848 748.8c-9.6 0-19.2-8-19.2-19.2s8-19.2 19.2-19.2 19.2 8 19.2 19.2-9.6 19.2-19.2 19.2zM680 617.6c-24 0-43.2 19.2-43.2 43.2s19.2 43.2 43.2 43.2 43.2-19.2 43.2-43.2-19.2-43.2-43.2-43.2zM680 680c-9.6 0-19.2-8-19.2-19.2s8-19.2 19.2-19.2 19.2 8 19.2 19.2-9.6 19.2-19.2 19.2zM732.8 737.6c-24 0-43.2 19.2-43.2 43.2s19.2 43.2 43.2 43.2 43.2-19.2 43.2-43.2-19.2-43.2-43.2-43.2zM732.8 798.4c-9.6 0-19.2-8-19.2-19.2s8-19.2 19.2-19.2 19.2 8 19.2 19.2-8 19.2-19.2 19.2z" />
<glyph unicode="&#xe920;" glyph-name="shield" d="M512 72.214c-4.506 0-9.012 1.044-13.12 3.128-129.264 65.608-213.58 148.79-257.768 254.304-36.57 87.326-44.992 190.67-25.746 315.938 1.396 9.086 6.83 16.81 14.908 21.192 8.058 4.374 17.47 4.718 25.822 0.944 54.174-24.488 104.83-21.336 150.562 9.378 40.070 26.91 67.284 69.046 79.94 91.766 5.126 9.204 14.858 14.918 25.4 14.918s20.274-5.714 25.4-14.918c12.656-22.72 39.87-64.856 79.94-91.766 45.728-30.712 96.384-33.866 150.56-9.378 8.352 3.776 17.764 3.432 25.824-0.942 8.080-4.382 13.512-12.106 14.908-21.192 33.69-219.284-17.502-375.654-161.104-492.108-6.434-5.218-15.882-4.232-21.098 2.204-5.218 6.434-4.232 15.88 2.202 21.098 73.218 59.376 120.078 128.96 143.254 212.726 19.712 71.24 22.092 153.154 7.27 250.382-63.856-28.508-123.928-24.376-178.542 12.304-42.33 28.428-71.442 70.12-88.612 100.628-17.17-30.506-46.282-72.2-88.616-100.632-54.612-36.682-114.682-40.814-178.542-12.304-18.16-119.134-10.326-216.83 23.94-298.652 41.27-98.546 120.824-176.696 243.216-238.906 22.85 11.618 44.526 24 64.426 36.804 6.966 4.482 16.248 2.466 20.73-4.498 4.482-6.968 2.468-16.248-4.498-20.732-20.888-13.44-43.612-26.412-67.538-38.558-4.104-2.084-8.612-3.128-13.118-3.128zM485.314 281.634c-13.356 0-25.91 5.2-35.352 14.64l-92.764 92.74c-9.446 9.442-14.648 21.996-14.65 35.354-0.002 13.356 5.198 25.912 14.64 35.358 19.494 19.496 51.216 19.502 70.71 0.008l56.624-56.608 24.308 25.402c5.726 5.986 15.222 6.196 21.208 0.466 5.986-5.728 6.194-15.222 0.466-21.21l-34.908-36.48c-2.79-2.914-6.636-4.584-10.672-4.628-4.028-0.062-7.918 1.54-10.772 4.392l-67.466 67.448c-7.798 7.796-20.486 7.794-28.284-0.004-3.776-3.778-5.856-8.802-5.856-14.142 0-5.342 2.082-10.366 5.86-14.14l92.766-92.742c3.776-3.776 8.798-5.856 14.14-5.856 0.020 0 0.202 0 0.222 0.002 5.344 0.058 10.53 2.306 14.226 6.17l146.136 152.718c3.694 3.86 5.664 8.926 5.546 14.268-0.118 5.34-2.308 10.314-6.166 14.008-3.862 3.694-8.938 5.684-14.268 5.546-5.34-0.118-10.316-2.308-14.008-6.168l-41.288-43.148c-5.728-5.982-15.224-6.194-21.21-0.466s-6.194 15.222-0.466 21.21l41.286 43.144c9.232 9.65 21.67 15.128 35.024 15.42 13.316 0.334 26.018-4.628 35.67-13.864 9.648-9.232 15.126-21.672 15.42-35.026 0.292-13.352-4.63-26.020-13.864-35.668l-146.136-152.716c-9.242-9.658-22.208-15.282-35.572-15.43zM512-64c-5.504-0.002-11.008 1.274-16.026 3.82-95.588 48.514-175.766 105.118-238.304 168.24-58.602 59.148-103.82 126.154-134.392 199.158-52.83 126.152-64.964 275.66-37.094 457.066 1.706 11.11 8.35 20.552 18.226 25.908 9.848 5.342 21.348 5.758 31.55 1.146 20.106-9.088 40.146-15.726 59.564-19.73 8.114-1.674 13.334-9.608 11.662-17.72-1.674-8.116-9.606-13.338-17.722-11.662-21.584 4.452-43.742 11.778-65.864 21.778-2.162 0.976-3.994 0.304-4.89-0.182-0.916-0.498-2.506-1.69-2.876-4.092-27.008-175.786-15.522-320.014 35.114-440.922 60.92-145.466 178.22-260.684 358.604-352.236 1.532-0.778 3.36-0.778 4.888 0 180.386 91.552 297.686 206.77 358.606 352.236 50.636 120.908 62.12 265.136 35.114 440.922-0.37 2.402-1.96 3.594-2.876 4.092-0.9 0.486-2.73 1.156-4.888 0.182-91.42-41.328-177.326-35.72-255.33 16.668-61.586 41.362-103.732 102.5-128.242 146.504-1.37 2.46-3.612 2.824-4.828 2.826-1.216 0-3.46-0.368-4.83-2.826-17.038-30.588-45.906-75.068-86.688-113.256-49.312-46.174-103.632-71.86-161.454-76.34-8.278-0.64-15.474 5.54-16.114 13.796-0.64 8.258 5.536 15.472 13.796 16.114 115.648 8.962 190.14 113.040 224.252 174.282 6.362 11.414 17.966 18.228 31.042 18.228 13.078-0.002 24.68-6.814 31.036-18.228 18.756-33.674 59.126-96.148 118.758-136.196 68.802-46.208 144.922-50.996 226.244-14.236 10.202 4.612 21.7 4.194 31.548-1.146 9.878-5.356 16.522-14.798 18.228-25.908 27.87-181.406 15.736-330.914-37.096-457.064-30.572-73.004-75.788-140.012-134.392-199.158-62.538-63.122-142.716-119.726-238.306-168.24-5.012-2.55-10.516-3.824-16.020-3.824z" />
<glyph unicode="&#xe921;" glyph-name="trust" d="M8 324.036l112.756-65.098c2.294-1.347 5.053-2.142 7.997-2.142 5.893 0 11.041 3.186 13.818 7.928l0.041 0.076 4.062 7.036 65.3-38.232c-1.477-5.11-2.326-10.979-2.326-17.047 0-0.001 0-0.002 0-0.003v0c0-0.071 0-0.154 0-0.238 0-17.316 7.033-32.989 18.399-44.319l0.002-0.002c11.371-11.385 27.087-18.428 44.448-18.428 0.039 0 0.077 0 0.116 0h-0.006c1.214 0 2.43 0.048 3.644 0.116-0.068-1.2-0.112-2.4-0.112-3.62 0-0.040 0-0.088 0-0.136 0-34.696 28.126-62.822 62.822-62.822 0.048 0 0.096 0 0.143 0h-0.007c1.22 0 2.434 0.044 3.644 0.112-0.068-1.21-0.114-2.424-0.114-3.644 0-0.041 0-0.090 0-0.138 0-34.696 28.126-62.822 62.822-62.822 0.048 0 0.096 0 0.144 0h-0.007c4.67 0.001 9.222 0.504 13.605 1.457l-0.421-0.077c4.215-25.187 25.852-44.144 51.916-44.144 0.044 0 0.087 0 0.131 0h-0.007c0.017 0 0.036 0 0.056 0 6.633 0 12.982 1.219 18.834 3.446l-0.364-0.122 3.178-3.174c9.547-9.563 22.745-15.478 37.325-15.478 26.111 0 47.791 18.975 52.002 43.888l0.043 0.31c3.958-0.883 8.507-1.393 13.173-1.4h0.005c0.023 0 0.051 0 0.078 0 34.74 0 62.902 28.162 62.902 62.902 0 1.311-0.040 2.612-0.119 3.903l0.009-0.177c1.2-0.068 2.4-0.11 3.62-0.11 0.037 0 0.081 0 0.125 0 34.716 0 62.858 28.142 62.858 62.858 0 1.316-0.040 2.624-0.12 3.92l0.009-0.178c1.2-0.068 2.4-0.11 3.62-0.11 34.778 0.036 62.957 28.237 62.957 63.020 0 13.594-4.304 26.183-11.625 36.478l0.131-0.194 88.266 50.752 13.616-23.584c2.818-4.816 7.965-8 13.856-8 2.945 0 5.705 0.796 8.075 2.184l-0.076-0.041 112.756 65.092c4.816 2.818 8 7.965 8 13.856 0 2.945-0.796 5.705-2.184 8.075l0.041-0.076-147.882 256.138c-2.818 4.815-7.965 7.999-13.856 7.999-2.945 0-5.704-0.796-8.074-2.184l0.076 0.041-112.756-65.1c-4.816-2.818-8-7.965-8-13.856 0-2.945 0.796-5.705 2.184-8.075l-0.041 0.076 13.078-22.652-18.692-7.078c-4.183-1.722-9.038-2.721-14.127-2.721-4.549 0-8.911 0.799-12.954 2.263l0.265-0.084-124.63 41.542c-5.304 1.876-11.42 2.96-17.789 2.96-9 0-17.494-2.164-24.991-6l0.31 0.144-24.8-12.224c-0.234 0.14-0.46 0.29-0.706 0.42l-29.542 15.6c-7.583 4.143-16.612 6.58-26.209 6.58-9.36 0-18.178-2.317-25.913-6.409l0.302 0.146-39.436-20.2c-2.816-1.603-6.178-2.568-9.761-2.618l-94.015-1.076 6.588 11.414c1.348 2.295 2.144 5.054 2.144 8 0 5.891-3.184 11.038-7.924 13.815l-0.075 0.041-112.75 65.094c-2.294 1.347-5.054 2.143-7.998 2.143-5.89 0-11.038-3.183-13.815-7.923l-0.041-0.075-147.882-256.138c-1.348-2.295-2.144-5.054-2.144-8 0-5.891 3.184-11.038 7.924-13.815l0.075-0.041zM250.674 194.616c-5.581 5.627-9.030 13.377-9.030 21.932s3.449 16.305 9.032 21.934l56.262 56.262c5.605 5.568 13.329 9.009 21.856 9.009 17.13 0 31.016-13.886 31.016-31.016 0-8.529-3.443-16.254-9.014-21.861l-56.258-56.26c-5.617-5.603-13.37-9.068-21.932-9.068s-16.315 3.465-21.933 9.069l0.001-0.001zM317.166 128.126c-5.581 5.627-9.030 13.377-9.030 21.932 0 8.548 3.443 16.292 9.018 21.92l56.276 56.274c5.596 5.514 13.283 8.92 21.766 8.92 17.13 0 31.016-13.886 31.016-31.016 0-8.483-3.405-16.17-8.923-21.769l-56.26-56.26c-5.617-5.604-13.369-9.069-21.931-9.069s-16.314 3.465-21.932 9.069l0.001-0.001zM383.656 61.636c-5.605 5.617-9.071 13.37-9.071 21.932s3.466 16.315 9.071 21.933l56.261 56.261c5.613 5.613 13.367 9.085 21.932 9.085 17.13 0 31.017-13.887 31.017-31.017 0-8.565-3.472-16.319-9.085-21.932v0c-0.522-0.53-1.009-1.098-1.456-1.699l-0.030-0.043c-1.753-1.374-3.315-2.757-4.79-4.226l-44.022-44.018c-1.469-1.477-2.854-3.042-4.145-4.685l-0.087-0.115c-0.641-0.475-1.206-0.96-1.736-1.482l0.002 0.002c-5.616-5.603-13.368-9.068-21.929-9.068-8.563 0-16.316 3.466-21.934 9.072l0.001-0.001zM456.116 15.886c-3.759 3.763-6.084 8.96-6.084 14.7s2.325 10.937 6.085 14.7v0l44.020 44.020c3.762 3.762 8.959 6.089 14.7 6.089 11.481 0 20.789-9.308 20.789-20.789 0-5.741-2.327-10.938-6.089-14.7v0l-44.020-44.020c-3.774-3.737-8.967-6.046-14.7-6.046s-10.926 2.309-14.702 6.047l0.002-0.002zM544.534 0.62c-3.762-3.752-8.954-6.072-14.687-6.072-5.647 0-10.769 2.251-14.517 5.904l0.004-0.004 29.378 29.378c3.649-3.744 5.9-8.865 5.9-14.513 0-5.737-2.322-10.931-6.078-14.694v0zM617 46.368c-5.616-5.604-13.369-9.069-21.93-9.069s-16.314 3.465-21.931 9.069l0.001-0.001c-0.53 0.523-1.099 1.010-1.701 1.456l-0.043 0.030c-1.374 1.753-2.757 3.315-4.226 4.79l-3.060 3.060c2.228 5.618 3.519 12.126 3.519 18.936 0 26.098-18.969 47.766-43.871 51.969l-0.31 0.043c0.883 3.969 1.388 8.528 1.388 13.206 0 4.166-0.401 8.238-1.167 12.181l0.065-0.4c4.347 2.461 9.546 3.911 15.085 3.911 8.554 0 16.301-3.459 21.916-9.056l56.265-56.263c5.605-5.616 9.071-13.369 9.071-21.931s-3.466-16.315-9.071-21.932l0.001 0.001zM683.492 112.858c-5.628-5.579-13.376-9.026-21.93-9.026s-16.302 3.447-21.932 9.028l-56.264 56.262c-5.383 5.571-8.7 13.169-8.7 21.541 0 17.13 13.886 31.016 31.016 31.016 8.361 0 15.95-3.308 21.528-8.688l-0.009 0.009v-0.012l56.264-56.262c5.611-5.618 9.082-13.375 9.082-21.943 0-8.559-3.463-16.309-9.064-21.926l0.001 0.001zM749.98 179.348c-5.616-5.604-13.368-9.069-21.929-9.069s-16.313 3.465-21.93 9.070l-56.265 56.263c-5.514 5.596-8.92 13.283-8.92 21.766 0 17.13 13.886 31.016 31.016 31.016 8.483 0 16.17-3.405 21.769-8.923l56.252-56.27c5.58-5.628 9.028-13.377 9.028-21.931s-3.448-16.303-9.030-21.933l0.002 0.002zM854.274 572.172l131.88-228.422-85.044-49.1-131.892 228.424zM548.126 500.6c3.048 1.628 6.667 2.585 10.51 2.585 2.759 0 5.402-0.493 7.847-1.396l-0.157 0.051 124.632-41.544c6.798-2.409 14.639-3.802 22.804-3.802 9.163 0 17.916 1.753 25.943 4.942l-0.475-0.167 23.57 8.93 88.978-154.11-94.878-54.552-40.562 40.564c-4.192 4.193-8.975 7.795-14.212 10.672l-0.326 0.164-127.55 95.622c-7.727 5.834-17.298 9.62-27.708 10.39l-0.174 0.010-18.742 1.654c-1.587 0.162-3.428 0.254-5.292 0.254-20.228 0-37.921-10.857-47.568-27.062l-0.14-0.254-24.846-40.858c-0.631-1.169-1.846-1.95-3.244-1.95-0.237 0-0.468 0.022-0.693 0.065l0.023-0.004-37.8 4.76c-1.983 0.258-3.498 1.936-3.498 3.968 0 0.387 0.055 0.76 0.157 1.114l-0.007-0.028 19.8 70.2c1.767 6.71 6.337 12.106 12.349 14.953l0.139 0.059zM378.266 478.6c8.8 0.1 17.051 2.359 24.276 6.271l-0.276-0.137 39.436 20.2c3.189 1.749 6.987 2.778 11.026 2.778 4.137 0 8.022-1.080 11.389-2.973l-0.117 0.060 9.782-5.162-50.932-25.106c-14.238-6.93-24.84-19.457-29.047-34.642l-0.091-0.384-19.8-70.2c-0.858-2.929-1.352-6.294-1.352-9.774 0-18.296 13.649-33.404 31.319-35.699l0.181-0.019 37.8-4.758c1.421-0.201 3.062-0.316 4.731-0.316 12.904 0 24.202 6.873 30.434 17.158l0.089 0.158 24.848 40.856c4.139 7.178 11.771 11.931 20.513 11.931 0.821 0 1.632-0.042 2.431-0.124l-0.1 0.008 18.74-1.654c4.356-0.217 8.32-1.734 11.556-4.167l-0.054 0.039 90.73-68.018c-21.98-10.106-36.966-31.935-36.966-57.264 0-0.048 0-0.096 0-0.144v0.007c0-1.212 0.044-2.418 0.11-3.62-1.119 0.071-2.426 0.111-3.742 0.111-34.716 0-62.858-28.142-62.858-62.858 0-0.043 0-0.087 0-0.13v0.007c0-1.214 0.044-2.418 0.11-3.62-1.097 0.068-2.379 0.107-3.67 0.107-10.537 0-20.472-2.58-29.207-7.143l0.349 0.166c-1.112 1.308-2.268 2.6-3.502 3.826-11.378 11.383-27.099 18.423-44.465 18.423-1.314 0-2.619-0.040-3.913-0.12l0.178 0.009c0.068 1.2 0.11 2.4 0.11 3.62 0 0.043 0 0.093 0 0.144 0 34.717-28.143 62.86-62.86 62.86-1.305 0-2.601-0.040-3.887-0.118l0.177 0.009c0.070 1.111 0.11 2.409 0.11 3.716 0 34.718-28.144 62.862-62.862 62.862-0.041 0-0.083 0-0.124 0h0.006c-0.071 0-0.155 0-0.239 0-17.316 0-32.99-7.033-44.319-18.399l-56.164-56.18-65.476 38.342 102.628 177.76zM169.736 572.172l85.044-49.098-131.882-228.424-85.042 49.1zM512 558.422c0.001 0 0.001 0 0.002 0 103.554 0 187.502 83.948 187.502 187.502s-83.948 187.502-187.502 187.502c-103.554 0-187.502-83.948-187.502-187.502v0c0.122-103.505 83.995-187.379 187.488-187.502h0.012zM512 901.422c0.001 0 0.001 0 0.002 0 85.881 0 155.502-69.621 155.502-155.502s-69.621-155.502-155.502-155.502c-85.881 0-155.502 69.621-155.502 155.502 0 0.001 0 0.002 0 0.002v0c0.1 85.84 69.66 155.401 155.49 155.502h0.010zM440.824 745.17c-1.911 2.604-3.057 5.871-3.057 9.407 0 8.837 7.164 16 16 16 5.301 0 10-2.578 12.912-6.549l0.031-0.045 24.49-33.704 81.526 66.784c2.723 2.216 6.235 3.558 10.060 3.558 8.837 0 16-7.163 16-16 0-4.939-2.238-9.356-5.756-12.291l-0.026-0.021-94.642-77.528c-2.737-2.255-6.278-3.623-10.14-3.623-5.301 0-10 2.578-12.911 6.548l-0.031 0.045z" />
<glyph unicode="&#xe922;" glyph-name="chair" horiz-adv-x="899" d="M724.293 135.805v202.927c0 67.129 58.83 121.756 131.122 121.756 24.126 0 43.707-18.182 43.707-40.585 0-22.565-19.843-40.87-44.232-40.585-23.952 0.285-43.183-18.345-43.183-40.585v-121.756c0-44.846-39.117-81.171-87.415-81.171zM174.829 135.805v202.927c0 67.129-58.83 121.756-131.122 121.756-24.126 0-43.707-18.182-43.707-40.585 0-22.565 19.843-40.87 44.232-40.585 23.952 0.285 43.183-18.345 43.183-40.585v-121.756c0-44.846 39.118-81.171 87.415-81.171zM631.526-64h-363.93c-23.634 0-42.816 16.784-42.816 37.463s19.181 37.463 42.816 37.463h363.93c23.634 0 42.816-16.784 42.816-37.463s-19.181-37.463-42.816-37.463zM437.073-64c-20.68 0-37.463 17.903-37.463 39.961v169.834c0 22.058 16.784 39.961 37.463 39.961s37.463-17.903 37.463-39.961v-169.834c0-22.058-16.784-39.961-37.463-39.961zM653.734 410.537h-408.305c-20.895 0-40.58 9.636-54.013 26.374-13.473 16.739-19.12 38.717-15.53 60.271l66.639 401.532c5.889 35.504 35.134 61.286 69.543 61.286h274.986c34.449 0 63.693-25.783 69.542-61.329l66.64-401.532c3.589-21.554-2.058-43.532-15.53-60.271-13.394-16.696-33.078-26.332-53.972-26.332zM743.804 135.805h-588.487c-16.802 0-30.439 13.732-30.439 30.653v81.738c0 61.999 50.042 112.39 111.61 112.39h426.145c61.57 0 111.611-50.391 111.611-112.39v-81.738c0-16.921-13.637-30.653-30.44-30.653z" />
<glyph unicode="&#xe923;" glyph-name="clock" d="M511.996 960c-282.315 0-511.996-229.676-511.996-511.987 0-282.325 229.681-512.013 511.996-512.013 282.308 0 511.983 229.692 511.983 512.013 0 282.311-229.675 511.987-511.983 511.987zM511.996 9.395c-241.845 0-438.601 196.766-438.601 438.618 0 241.841 196.756 438.593 438.601 438.593 241.839 0 438.592-196.751 438.592-438.593 0-241.852-196.753-438.618-438.592-438.618zM775.258 456.589h-240.606v263.005c0 20.267-16.427 36.698-36.698 36.698-20.267 0-36.698-16.431-36.698-36.698v-299.703c0-20.267 16.431-36.698 36.698-36.698h277.303c20.271 0 36.698 16.431 36.698 36.698s-16.431 36.698-36.698 36.698z" />
<glyph unicode="&#xe924;" glyph-name="enhanced-disinfection2" horiz-adv-x="1107" d="M945.124-57.081h-358.4c-12.454 0-20.757 9.686-20.757 20.757s9.686 20.757 20.757 20.757h358.4c62.27 0 113.47 51.2 113.47 113.47v326.573c0 30.443-12.454 59.503-33.211 80.259l-164.67 164.67c-20.757 22.141-49.816 33.211-80.259 33.211h-217.254c-62.27 0-113.47-51.2-113.47-113.47v-148.065c0-12.454-9.686-20.757-20.757-20.757s-20.757 9.686-20.757 20.757v148.065c0 87.178 70.573 156.368 156.368 156.368h215.87c41.514 0 81.643-16.605 110.703-45.665l164.67-164.67c29.059-29.059 45.665-69.189 45.665-110.703v-325.189c-1.384-87.178-70.573-156.368-156.368-156.368zM921.6 358.054c-17.989 0-35.978 6.919-48.432 19.373l-141.146 141.146c-26.292 26.292-26.292 69.189 0 96.865 12.454 12.454 30.443 19.373 48.432 19.373s35.978-6.919 48.432-19.373l142.53-142.53c26.292-26.292 26.292-69.189 0-96.865-13.838-11.070-31.827-17.989-49.816-17.989zM780.454 593.297c-6.919 0-12.454-2.768-17.989-6.919-9.686-9.686-9.686-26.292 0-35.978l141.146-142.53c9.686-9.686 26.292-9.686 35.978 0s9.686 26.292 0 35.978l-141.146 141.146c-5.535 5.535-11.070 8.303-17.989 8.303zM788.757 704h-235.243c-12.454 0-20.757 9.686-20.757 20.757v76.108c0 30.443 24.908 55.351 56.735 55.351h164.67c31.827 0 56.735-24.908 56.735-55.351v-76.108c-1.384-12.454-9.686-20.757-22.141-20.757zM574.27 745.514h192.346v55.351c0 6.919-6.919 12.454-13.838 12.454h-163.286c-8.303 0-13.838-5.535-13.838-12.454v-55.351zM733.405 814.703h-138.378c-12.454 0-20.757 9.686-20.757 20.757v71.957c0 26.292 20.757 47.049 45.665 47.049h88.562c24.908 0 45.665-20.757 45.665-47.049v-71.957c0-12.454-8.303-20.757-20.757-20.757zM615.784 856.216h95.481v51.2c0 2.768-1.384 4.151-2.768 4.151h-88.562c-1.384 0-2.768-1.384-2.768-4.151v-51.2zM581.189-57.081h-125.924c-12.454 0-20.757 9.686-20.757 20.757s9.686 20.757 20.757 20.757h125.924c41.514 0 77.492 29.059 87.178 67.805h-617.168c9.686-38.746 44.281-67.805 87.178-67.805h125.924c12.454 0 20.757-9.686 20.757-20.757s-9.686-20.757-20.757-20.757h-125.924c-73.341 0-131.459 59.503-131.459 131.459 0 12.454 9.686 20.757 20.757 20.757h664.216c12.454 0 20.757-9.686 20.757-20.757 0-73.341-58.119-131.459-131.459-131.459zM581.189 53.622h-442.811c-73.341 0-131.459 59.503-131.459 131.459 0 12.454 9.686 20.757 20.757 20.757h664.216c12.454 0 20.757-9.686 20.757-20.757 0-73.341-58.119-131.459-131.459-131.459zM51.2 164.324c9.686-38.746 44.281-67.805 87.178-67.805h442.811c41.514 0 77.492 29.059 87.178 67.805h-617.168zM467.719 164.324h-215.87c-2.768 0-5.535 0-8.303 1.384-110.703 45.665-181.276 150.832-181.276 268.454 0 12.454 9.686 20.757 20.757 20.757h553.514c12.454 0 20.757-9.686 20.757-20.757 0-117.622-71.957-222.789-182.659-268.454-1.384-1.384-4.151-1.384-6.919-1.384zM257.384 205.838h206.184c85.795 37.362 143.914 116.238 150.832 206.184h-509.232c8.303-89.946 65.038-168.822 152.216-206.184zM193.73 717.838c-12.454 0-20.757 9.686-20.757 20.757v27.676c0 12.454 9.686 20.757 20.757 20.757s20.757-9.686 20.757-20.757v-27.676c0-12.454-8.303-20.757-20.757-20.757zM192.346 569.773c-12.454 0-20.757 9.686-20.757 20.757v27.676c0 12.454 9.686 20.757 20.757 20.757s20.757-9.686 20.757-20.757v-27.676c0-11.070-8.303-20.757-20.757-20.757zM279.524 658.335h-27.676c-12.454 0-20.757 9.686-20.757 20.757s9.686 20.757 20.757 20.757h27.676c12.454 0 20.757-9.686 20.757-20.757s-8.303-20.757-20.757-20.757zM132.843 658.335h-27.676c-12.454 0-20.757 9.686-20.757 20.757s9.686 20.757 20.757 20.757h27.676c12.454 0 20.757-9.686 20.757-20.757s-9.686-20.757-20.757-20.757z" />
<glyph unicode="&#xe925;" glyph-name="envelop" d="M991.599 917.51h-959.196c-17.895 0-32.402-14.508-32.402-32.402v-664.679c0-17.894 14.508-32.401 32.402-32.401h239.743c17.895 0 32.403 14.507 32.403 32.401s-14.508 32.401-32.403 32.401h-207.34v599.876h894.392v-599.876h-384.777c-6.596 0-13.039-2.014-18.462-5.777l-302.274-209.54c-14.706-10.193-18.361-30.383-8.17-45.094 6.29-9.075 16.387-13.943 26.661-13.943 6.368 0 12.801 1.869 18.431 5.777l293.947 203.772h407.040c17.894 0 32.405 14.507 32.405 32.401v664.684c0.004 17.895-14.507 32.402-32.401 32.402zM631.91 659.945c17.899 0 32.405 14.508 32.405 32.402s-14.507 32.402-32.405 32.402h-239.802c-17.895 0-32.402-14.508-32.402-32.402s14.508-32.402 32.402-32.402h239.802zM239.809 552.764c0-17.894 14.508-32.401 32.402-32.401h479.597c17.899 0 32.405 14.507 32.405 32.401s-14.507 32.402-32.405 32.402h-479.597c-17.895 0-32.402-14.503-32.402-32.402zM272.211 380.787h479.597c17.899 0 32.405 14.511 32.405 32.405s-14.507 32.401-32.405 32.401h-479.597c-17.895 0-32.402-14.507-32.402-32.401s14.508-32.405 32.402-32.405z" />
<glyph unicode="&#xe926;" glyph-name="home" horiz-adv-x="1195" d="M988.646 401.668c-19.567 0-35.418-15.859-35.418-35.418v-359.415h-718.842v359.415c0 19.558-15.853 35.418-35.418 35.418s-35.418-15.859-35.418-35.418v-394.833c0-19.558 15.853-35.418 35.418-35.418h789.677c19.563 0 35.418 15.859 35.418 35.418v394.833c0 19.558-15.859 35.418-35.418 35.418zM1177.195 391.292l-558.404 558.336c-13.824 13.832-36.254 13.827-50.082 0l-558.334-558.336c-13.832-13.833-13.832-36.258 0-50.086 6.918-6.912 15.985-10.377 25.047-10.377 9.067 0 18.129 3.46 25.047 10.377l533.289 533.295 533.355-533.295c13.828-13.833 36.254-13.828 50.091 0.004 13.824 13.828 13.824 36.254-0.009 50.082z" />
<glyph unicode="&#xe927;" glyph-name="home2" horiz-adv-x="1092" d="M1073.92 505.057l-490.063 440.442c-21.511 19.335-53.948 19.333-75.448 0.002l-490.067-440.447c-17.231-15.486-22.923-39.349-14.504-60.788 8.42-21.439 28.921-35.29 52.232-35.29h78.272v-441.289c0-17.497 14.383-31.683 32.122-31.683h268.617c17.736 0 32.119 14.182 32.119 31.683v267.936h157.87v-267.94c0-17.497 14.384-31.683 32.123-31.683h268.602c17.739 0 32.123 14.186 32.123 31.683v441.293h78.285c23.31 0 43.814 13.855 52.234 35.29 8.407 21.443 2.714 45.302-14.517 60.791zM949.528 877.45h-215.719l247.842-168.933v144.856c0 13.298-14.38 24.078-32.123 24.078z" />
<glyph unicode="&#xe928;" glyph-name="isolation-mode" d="M15.298 402.796c23.599-18.496 48.63-35.104 74.878-49.678l15.477-9.2 1.462-1.227 52.226-23.895 8.643-3.865 38.46-13.34c69.065-23.175 141.77-35.012 215.396-35.066 73.348 0.551 146.616 12.231 217.336 34.647l53.323 19.224 53.455 25.093c3.088 1.395 5.965 2.767 8.939 4.257l44.157 26.119c5.304 3.123 10.608 6.245 15.784 9.672l55.384 40.414 1.18 1.403 30.106 26.746c16.736 14.338 32.416 29.893 46.907 46.531l10.371 11.222c1.917 1.787 3.457 3.936 4.53 6.315s1.655 4.936 1.72 7.513c0.057 2.577-0.418 5.118-1.384 7.466s-2.408 4.451-4.243 6.18c-1.827 1.729-4.006 3.046-6.398 3.869s-4.948 1.135-7.504 0.917c-2.564-0.219-5.063-0.963-7.365-2.187-2.294-1.225-4.334-2.902-5.997-4.929l-11.174-11.946c-13.41-15.476-27.959-29.916-43.524-43.19l-29.901-26.723-53.767-39.176c-3.759-2.425-8.558-5.174-13.637-8.485l-43.553-25.629c-0.981-1.169-3.902-1.907-6.161-3.001l-52.838-24.814-50.137-17.713c-66.821-21.218-136.062-32.252-205.373-32.729-69.506 0.034-138.134 11.268-203.287 33.275l-37.153 12.842-6.029 2.867-51.776 23.517-14.817 8.846c-24.714 13.593-48.259 29.152-70.421 46.535-3.73 3.13-8.599 4.592-13.536 4.063s-9.539-3.003-12.792-6.88c-3.253-3.876-4.891-8.838-4.554-13.792s2.622-9.496 6.351-12.626l1.235 0.558zM897.958 366.388c1.86-1.54 3.998-2.709 6.308-3.447 2.359-0.737 4.866-0.989 7.373-0.74 2.499 0.249 4.948 0.994 7.209 2.191s4.284 2.823 5.956 4.784c1.671 1.961 2.957 4.218 3.785 6.641 8.266 24.087 15.868 48.318 23.036 72.501s9.691 44.46 13.353 65.629l1.278 7.353c0.541 3.111 0.328 6.273-0.623 9.212s-2.613 5.565-4.833 7.652c-2.22 2.087-4.94 3.573-7.922 4.326s-6.136 0.755-9.191 0.002l-8.020-2.098c-19.816-4.944-38.552-9.767-57.704-13.215-19.145-3.45-43.213-4.825-64.218-6.513-5.083-0.394-9.898-2.802-13.385-6.695s-5.362-8.953-5.21-14.065c0.152-5.113 2.315-9.859 6.016-13.196s8.636-4.991 13.719-4.597c21.61 2.412 44.138 4.053 66.567 7.212 14.107 2.34 27.623 5.378 41.345 8.658-2.507-13.719-5.325-27.582-8.823-41.085-6.701-22.929-14.23-46.606-22.323-70.018-1.147-3.757-1.163-7.722-0.033-11.379 1.122-3.656 3.334-6.832 6.341-9.114z" />
<glyph unicode="&#xe929;" glyph-name="pdf1" d="M467.089 644.855c5.628 0 5.628 0 0 0 5.628 22.51 11.257 33.766 11.257 50.648v11.255c5.628 28.138 5.628 50.648 0 56.276 0 0 0 0 0 5.627l-5.628 5.627c0 0 0-5.627-5.628-5.627-11.253-33.766-11.253-73.159 0-123.807zM298.262 256.551c-11.255-5.625-22.51-11.253-28.138-16.882-39.393-33.764-67.531-73.156-73.159-90.041 33.766 5.628 67.531 39.392 101.297 106.923 5.628 0 5.628 0 0 0zM816.001 340.967c-5.628 5.625-28.139 22.51-106.927 22.51-5.625 0-5.625 0-11.253 0 0 0 0-0.004 0-5.628 39.392-16.882 78.784-28.139 106.923-28.139 5.628 0 5.628 0 11.257 0h5.625c0 0 0 0 0 5.628 0 0-5.625 0-5.625 5.628zM900.414 960h-787.862c-61.903 0-112.552-50.648-112.552-112.552v-787.862c0-61.903 50.648-112.552 112.552-112.552h787.862c61.903 0 112.552 50.649 112.552 112.552v787.862c0 61.903-50.649 112.552-112.552 112.552zM838.511 295.947c-11.257-5.628-28.139-11.257-50.649-11.257-45.021 0-112.552 11.257-168.829 39.392-95.666-11.253-168.826-22.507-225.103-45.017-5.625 0-5.625 0-11.253-5.628-67.531-118.18-123.807-174.458-168.828-174.458-11.255 0-16.883 0-22.51 5.632l-28.138 16.878v5.628c-5.627 11.257-5.627 16.882-5.627 28.139 5.628 28.139 39.393 78.784 106.924 118.18 11.255 5.628 28.138 16.882 50.648 28.139 16.883 28.139 33.766 61.903 56.278 101.295 28.135 56.274 45.021 112.552 61.903 163.201-22.51 67.529-33.767 106.922-11.257 185.709 5.628 22.51 22.51 45.021 45.021 45.021h11.257c11.253 0 22.51-5.628 33.764-11.256 39.396-39.393 22.51-129.434 0-202.592 0-5.628 0-5.628 0-5.628 22.51-61.903 56.278-112.552 90.041-146.315 16.882-11.257 28.139-22.51 50.649-33.767 28.139 0 50.649 5.628 73.16 5.628 67.531 0 112.552-11.257 129.43-39.392 5.632-11.26 5.632-22.51 5.632-33.767-5.628-5.628-11.257-22.51-22.51-33.764zM472.717 515.422c-11.257-39.396-33.767-84.413-56.278-135.062-11.253-22.51-22.51-39.392-33.764-61.906h11.253c73.16 28.139 140.691 45.024 185.711 50.649-11.257 5.628-16.882 11.257-22.51 16.882-28.139 33.767-61.903 78.788-84.413 129.437z" />
<glyph unicode="&#xe92a;" glyph-name="phone1" d="M875.58 825.858c-86.511 86.509-201.532 134.147-323.87 134.142-20.045 0-36.292-16.249-36.292-36.291s16.252-36.291 36.292-36.291c102.95 0.005 199.744-40.085 272.542-112.885 72.806-72.8 112.896-169.597 112.892-272.555 0-20.041 16.243-36.288 36.292-36.288 20.041 0 36.292 16.247 36.292 36.284 0.004 122.351-47.637 237.376-134.148 323.884zM726.289 501.965c0-20.041 16.252-36.288 36.297-36.284 20.045 0 36.288 16.247 36.288 36.292-0.009 136.26-110.886 247.132-247.159 247.152 0.004 0-0.004 0 0 0-20.041 0-36.288-16.244-36.297-36.287 0-20.042 16.247-36.291 36.288-36.296 96.26-0.015 174.575-78.326 174.583-174.577zM645.986 316.945c-55.317 2.863-83.499-38.276-97.015-58.039-11.315-16.542-7.078-39.125 9.468-50.445 16.542-11.315 39.125-7.078 50.445 9.468 15.966 23.347 23.202 27.021 33.015 26.556 31.407-3.695 155.11-94.345 167.501-122.688 3.106-8.35 2.991-16.533-0.346-26.483-12.988-38.549-34.483-65.634-62.182-78.332-26.313-12.066-58.573-10.97-93.274 3.149-129.57 52.813-242.769 126.511-336.45 219.059-0.038 0.038-0.077 0.073-0.111 0.111-92.354 93.589-165.919 206.643-218.643 336.014-14.124 34.729-15.218 66.994-3.155 93.303 12.697 27.697 39.785 49.196 78.297 62.169 9.987 3.348 18.155 3.455 26.425 0.378 28.448-12.431 119.094-136.131 122.752-167.187 0.522-10.181-3.18-17.41-26.508-33.349-16.549-11.302-20.802-33.886-9.494-50.436 11.304-16.546 33.882-20.796 50.435-9.493 19.771 13.5 60.902 41.604 58.047 97.111-3.145 57.979-115.929 211.52-169.819 231.335-23.967 8.933-49.177 9.088-74.959 0.436-58.008-19.535-99.902-54.365-121.155-100.721-20.613-44.972-19.96-97.149 1.911-150.918 56.426-138.448 135.371-259.591 234.64-360.067 0.242-0.247 0.489-0.491 0.74-0.725 100.406-99.085 221.404-177.886 359.67-234.244 27.691-11.26 54.955-16.896 81.033-16.896 24.55 0 48.060 4.992 69.862 14.989 46.362 21.248 81.186 63.138 100.736 121.186 8.631 25.732 8.491 50.931-0.371 74.786-19.883 54.037-173.427 166.818-231.497 169.975z" />
<glyph unicode="&#xe92b;" glyph-name="projects-done" horiz-adv-x="1327" d="M77.778 605.539c0 65.149 52.337 118.154 116.667 118.154h674.073c64.33 0 116.668-53.005 116.668-118.154v-39.384h77.777v131.281c0 57.913-46.522 105.027-103.703 105.027h-466.667v52.513c0 57.911-46.52 105.026-103.703 105.026h-285.185c-57.182 0-103.704-47.114-103.704-105.026v-719.607l77.778 126.115v344.056zM868.517 644.923h-674.073c-21.477 0-38.889-17.634-38.889-39.384v-217.938l75.851 122.992c21.462 34.793 58.453 55.561 98.951 55.561h577.049v39.384c0 21.751-17.412 39.384-38.889 39.384zM1024.142-64h-985.185c-14.135 0-27.157 7.765-34.010 20.288-6.852 12.521-6.461 27.821 1.027 39.961l291.469 472.616c7.107 11.522 19.572 18.521 32.986 18.521h906.221c33.437 0 64.053-18.523 79.899-48.34 15.849-29.819 14.254-65.904-4.159-94.166l-255.822-391.238c-7.204-11.019-19.384-17.641-32.427-17.641z" />
<glyph unicode="&#xe92c;" glyph-name="quote" horiz-adv-x="1177" d="M781.888-64c-57.003 0-104.505 15.938-142.507 47.813 86.861 98.283 152.007 183.284 195.439 255.004 40.715 71.72 67.859 148.752 81.432 231.097h-28.502c-65.146 0-115.362 19.924-150.65 59.768-38.001 39.844-57.002 92.97-57.002 159.377v51.798c0 66.407 19.001 119.533 57.002 159.377 38.003 39.844 89.577 59.767 154.722 59.767h61.075c67.861 0 122.149-19.922 162.865-59.767 40.717-42.501 61.075-99.611 61.075-171.33v-55.782c0-191.253-62.432-379.851-187.294-565.791-40.717-61.095-77.361-104.923-109.935-131.486-32.572-26.563-65.146-39.844-97.719-39.844zM248.369 469.914c-65.146 0-115.362 19.924-150.65 59.768-38.002 39.844-57.003 92.97-57.003 159.377v51.798c0 66.407 19.001 119.533 57.003 159.377s90.932 59.767 158.793 59.767h61.075c65.146 0 118.078-19.922 158.793-59.767 40.717-42.501 61.075-99.611 61.075-171.33v-55.782c0-199.223-62.432-387.819-187.294-565.791-40.717-61.095-77.362-104.923-109.935-131.486s-65.146-39.844-97.719-39.844c-51.574 0-99.076 15.938-142.507 47.813 86.861 98.283 152.007 183.284 195.439 255.004 40.715 71.72 67.859 148.752 81.432 231.097h-28.502z" />
<glyph unicode="&#xe92d;" glyph-name="quote-text" horiz-adv-x="939" d="M662.251 520c0 22.092-17.907 40-40 40h-411.998c-22.092 0-40-17.908-40-40s17.908-40 40-40h411.998c22.093 0 40 17.907 40 40zM210.253 400c-22.092 0-40-17.907-40-40s17.908-40 40-40h250.223c22.093 0 40 17.907 40 40s-17.907 40-40 40h-250.223zM304.252 16h-133.778c-44.112 0-80 35.887-80 80v704c0 44.112 35.888 80 80 80h491.777c44.113 0 80-35.888 80-80v-246c0-22.092 17.907-39.999 40-39.999s40 17.907 40 39.999v246c0 88.224-71.774 160-160 160h-491.777c-88.224 0-160-71.776-160-160v-704c0-88.222 71.776-160 160-160h133.778c22.092 0 40 17.907 40 40s-17.908 40-40 40zM893.103 380.851c-46.788 46.788-122.918 46.793-169.677 0.034l-219.605-219.123c-4.663-4.651-8.102-10.385-10.018-16.687l-47.829-157.453c-4.237-13.956-0.542-29.116 9.643-39.556 7.633-7.825 18.001-12.070 28.634-12.070 3.558 0 7.151 0.478 10.679 1.455l161.446 44.723c6.647 1.839 12.702 5.363 17.583 10.236l219.145 218.735c46.788 46.788 46.788 122.914 0 169.707zM624.883 56.461l-81.22-22.502 23.77 78.259 148.177 147.849 56.58-56.576-147.307-147.029zM836.565 267.738l-7.753-7.735-56.567 56.572 7.723 7.706c15.595 15.595 40.973 15.595 56.567 0s15.595-40.973 0.030-56.542zM622.251 720h-411.998c-22.092 0-40-17.908-40-40s17.908-40 40-40h411.998c22.093 0 40 17.908 40 40s-17.907 40-40 40z" />
<glyph unicode="&#xe92e;" glyph-name="satisfied--customers" horiz-adv-x="858" d="M176.864 686.968c-8.129 28.707-32.375 48.102-58.856 47.113-20.251-0.736-44.416-14.292-55.969-49.218-35.768-3.104-54.391-23.944-59.968-43.958-7.305-26.223 5.166-55.032 30.311-70.058 23.971-14.316 58.49-17.435 84.027-17.435 11.14-0.024 22.272 0.568 33.35 1.772 3.029 0.355 5.905 1.565 8.307 3.495s4.238 4.507 5.304 7.444c2.745 7.554 26.439 75.142 13.494 120.846zM854.879 591.327c-7.106 19.39-27.076 38.46-62.419 38.46h-0.092c-14.2 33.7-39.055 45.083-59.011 44.029-26.139-1.351-48.337-22.718-53.981-51.954-8.984-46.553 19.814-111.655 23.129-118.924 1.286-2.825 3.301-5.225 5.817-6.933 2.518-1.709 5.441-2.662 8.446-2.751 0.994-0.030 3-0.077 5.82-0.077 19.12 0 75.646 2.119 108.229 25.882 23.486 17.131 33.379 46.851 24.061 72.269zM271.618 372.706c2.739 0 5.438 0.604 7.882 1.762s4.563 2.836 6.186 4.902c3.146 4.003 30.732 39.978 30.548 70.091-0.123 20.537-13.963 38.057-33.647 42.615-14.161 3.274-33.122-0.205-47.923-17.881-23.763 2.977-39.934-6.914-47.646-18.531-10.702-16.13-7.557-37.725 7.644-52.515 22.302-21.688 68.862-29.416 74.1-30.225 0.944-0.146 1.9-0.218 2.857-0.218zM373.509 568.596c6.243 15.381 16.819 28.598 30.431 38.030s29.666 14.667 46.197 15.065c0.526 0.011 1.056 0.018 1.58 0.018 16.812-0.077 33.221-5.18 47.136-14.661 13.913-9.483 24.701-22.912 30.987-38.576 58.076 44.552 135.948 114.671 165.358 188.505 13.411 33.687 16.151 68.736 7.922 101.373-7.516 30.85-25.529 58.090-50.923 77.011-26.871 19.613-59.764 27.756-95.133 23.566-34.905-4.145-70.274-19.885-105.297-46.83-35.022 26.943-70.391 42.685-105.296 46.83-35.37 4.198-68.26-3.952-95.134-23.566-25.395-18.923-43.407-46.168-50.921-77.021-8.237-32.633-5.492-67.676 7.922-101.373 29.362-73.755 107.121-143.801 165.171-188.369zM779.29 392.356c-9.91-3.521-18.489-10.037-24.558-18.653s-9.327-18.909-9.329-29.463v-68.040h-33.887v102.061c-0.002 10.552-3.26 20.846-9.329 29.463s-14.649 15.133-24.558 18.652c-9.91-3.519-18.491-10.035-24.559-18.652s-9.327-18.911-9.329-29.463v-102.061h-33.887v136.081c0 10.553-3.26 20.846-9.329 29.463s-14.648 15.133-24.558 18.652c-9.909-3.519-18.489-10.035-24.558-18.652s-9.327-18.909-9.329-29.463v-136.081h-33.887v255.151c0 28.609-23.32 52.712-51.813 52.17-13.31-0.259-25.989-5.748-35.31-15.291-9.32-9.543-14.541-22.374-14.538-35.739v-392.37c0 0-16.944 17.009-84.718 102.060-35.049 43.984-75.695 40.186-99.152 32.599-2.458-0.783-4.706-2.117-6.573-3.903s-3.305-3.976-4.203-6.402c-0.899-2.427-1.235-5.028-0.982-7.605s1.087-5.061 2.44-7.266l193.188-313.605h406.644v408.24c-0.002 10.553-3.26 20.846-9.329 29.463s-14.648 15.133-24.558 18.653z" />
<glyph unicode="&#xe92f;" glyph-name="service-type" horiz-adv-x="941" d="M268.508 201.843c-4.204 5.026-10.421 7.928-16.973 7.928h-221.080c-6.552 0-12.77-2.905-16.974-7.928-4.204-5.025-5.968-11.657-4.812-18.107l41.106-229.502c1.89-10.55 11.068-18.231 21.786-18.231h138.87c10.72 0 19.896 7.681 21.786 18.231l41.105 229.502c1.153 6.45-0.61 13.081-4.814 18.107zM521.559 791.44c46.546 0 84.279 37.734 84.279 84.28s-37.733 84.28-84.279 84.28c-46.546 0-84.281-37.733-84.281-84.28s37.734-84.28 84.281-84.28zM930.002 22.848c-3.12 4.914-8.538 7.89-14.358 7.89h-104.535v543.023l26.212 19.719c17.948 13.502 21.552 38.995 8.049 56.944-8.366 11.12-21.338 16.722-34.265 16.172v125.494c0 11.063-8.968 20.032-20.033 20.032-11.063 0-20.032-8.968-20.032-20.032v-146.695l-44.159-33.218-0.285 56.64c-0.263 52.8-43.436 95.754-96.235 95.754h-218.314c-52.798 0-95.97-42.951-96.237-95.751l-1.5-298.76c-0.113-22.459 18.003-40.758 40.463-40.87 0.068 0 0.14 0 0.209 0 22.362 0 40.549 18.074 40.662 40.462l1.5 298.758c0 0.036 0 0.071 0 0.105 0.054 4.317 3.583 7.784 7.9 7.755s7.805-3.533 7.805-7.852l0.018-683.618c0-26.952 21.847-48.799 48.799-48.799s48.801 21.847 48.801 48.799v390.058h21.069v-390.058c0-26.952 21.849-48.799 48.801-48.799s48.799 21.847 48.799 48.799l-0.868 684.071c-0.006 4.576 3.616 8.333 8.188 8.494s8.456-3.329 8.77-7.894c0.024-0.343 0.037-0.696 0.044-1.060l0.692-137.608c0.077-15.378 8.82-29.396 22.596-36.226 13.825-6.858 30.274-5.276 42.515 3.937l59.97 45.113v-512.886h-76.006c-6.592 0-12.592-3.808-15.395-9.776l-28.531-60.722c-2.477-5.268-2.087-11.436 1.035-16.349 3.12-4.914 8.538-7.89 14.358-7.89h220.604c6.592 0 12.588 3.808 15.395 9.776l28.531 60.722c2.477 5.264 2.087 11.431-1.034 16.348z" />
<glyph unicode="&#xe930;" glyph-name="service-type-2" horiz-adv-x="1276" d="M792.875 770.925c52.519 0 95.093 42.326 95.093 94.538s-42.575 94.537-95.093 94.537c-52.517 0-95.092-42.326-95.092-94.537s42.575-94.538 95.092-94.538zM1238.574 11.42h-106.015c-218.070 425.842-185.661 362.642-211.209 412.185 6.59 5.698 10.936 12.804 13.152 20.588 6.488 22.751-6.806 46.436-29.709 52.889l-143.389 40.392-50.053 155.122 75.153-117.705 30.038 72.799c13.465 32.633-2.232 69.939-35.057 83.327l-105.99 43.223c-21.768 8.875-48.524-1.829-63.113-8.14-41.255-17.854-163.693-74.354-163.693-74.354-12.226-5.555-21.146-16.464-24.116-29.498-2.97-13.033 0.349-26.697 8.976-36.947l51.478-61.171-26.377-11.401c-28.497-12.316-47.631-39.104-49.943-69.907-1.293-17.257-21.9-291.9-23.152-308.611-1.368-18.268-16.875-32.577-35.3-32.577h-266.812c-19.522 0-35.401 15.786-35.401 35.195 0 19.316 15.809 35.193 35.401 35.193h28.659v-31.423h245.273v136.010c0 15.419-12.573 27.919-28.083 27.919h-189.112c-15.51 0-28.083-12.5-28.083-27.919v-56.828h-28.654c-46.014 0-83.444-37.217-83.444-82.958 0-0.311 0.020-0.619 0.025-0.929 0.506-45.314 37.722-82.025 83.419-82.025h266.816c43.432 0 79.984 33.729 83.211 76.787 1.007 13.437 21.785 290.401 23.151 308.611 0.981 13.071 9.098 24.432 21.187 29.657l22.863 9.882-23.758-57.575c-5.659-13.1-12.082-33.023-3.31-50.865l103.437-201.76-70.624-206.64c-8.919-26.090 5.13-54.428 31.374-63.292 26.258-8.865 54.75 5.109 63.663 31.191l77.437 226.583c4.356 12.754 3.347 26.71-2.804 38.709l-74.957 146.21 15.415-2.177 86.752-166.293-24.237-221.592c-2.996-27.393 16.914-52.016 44.468-54.993 27.478-2.981 52.317 16.752 55.317 44.209l25.99 237.659c1.143 10.442-1.059 20.977-6.293 30.103l-85.371 148.894 8.172 19.807-16.938 4.771c-36.889 10.393-57.542 43.339-59.235 64.415l-14.040 174.574 55.269-171.296c4.381-13.57 15.308-24.192 29.279-28.129l151.381-42.643c32.105-62.262-1.312 2.901 208.663-407.245h-52.544c-20.944 0-37.929-16.882-37.929-37.708s16.982-37.707 37.929-37.707h215.385c20.946 0 37.929 16.882 37.929 37.707 0.010 20.817-16.972 37.699-37.919 37.699zM545.037 626.329l-9.125 10.845 16.733 7.599-7.608-18.443zM246.078 508.227h-22.682c-61.467 0-111.293-49.538-111.293-110.644-0.002-15.42 12.571-27.919 28.081-27.919h189.107c15.51 0 28.083 12.498 28.083 27.919-0.003 61.108-49.831 110.644-111.295 110.644zM112.108 48.989v-21.824h-0.007c0-14.326 10.855-26.112 24.832-27.718-2.92-5.872-4.602-12.455-4.602-19.45 0-24.295 19.811-43.993 44.251-43.993 24.441 0 44.252 19.694 44.252 43.993 0 6.913-1.648 13.43-4.506 19.247h36.829c-2.86-5.82-4.506-12.334-4.506-19.247 0-24.295 19.811-43.993 44.252-43.993 24.44 0 44.251 19.694 44.251 43.993 0 6.993-1.683 13.58-4.602 19.45 13.977 1.603 24.831 13.392 24.831 27.718v21.824h-245.275zM176.578-36.337c-9.062 0-16.434 7.329-16.434 16.339-0.003 9.010 7.37 16.339 16.434 16.339 9.063 0 16.436-7.329 16.436-16.339s-7.373-16.339-16.436-16.339zM292.892-36.337c-9.062 0-16.434 7.329-16.434 16.339s7.373 16.339 16.434 16.339c9.063 0 16.436-7.329 16.436-16.339s-7.373-16.339-16.436-16.339z" />
<glyph unicode="&#xe931;" glyph-name="service-type-3" horiz-adv-x="664" d="M203.564 960c-46.549 0-84.28-37.734-84.28-84.28 0-3.55 0.244-7.040 0.672-10.472l32.283-8.434c0.576 4.38 4.283 7.776 8.826 7.776h85.002c4.782 0 8.65-3.76 8.894-8.48l32.12 8.388c0.49 3.672 0.765 7.414 0.765 11.22 0.003 46.548-37.733 84.282-84.281 84.282zM127.047 840.392c2.242-4.848 4.93-9.442 8.012-13.738 21.178 5.532 15.357 4.010 22.288 5.822-6.543 1.71-1.164 0.304-30.3 7.916zM225.15 783.314c-18.857 12.209-44.032 6.819-56.237-12.031l-70.312-108.217 38.596 101.507c-12.934 0-21.58 0-34.194 0-65.192 0-109.706-49.92-87.328-109.395 4.592-14.205 27.356-84.614 31.942-98.792 10.486-32.428 54.124-38.473 72.832-9.595l116.732 180.285c12.206 18.854 6.819 44.032-12.031 56.238zM252.541 832.472c3.288-0.86-0.184 0.050 19.96-5.214 2.732 3.88 5.155 7.99 7.211 12.31-26.547-6.934-23.605-6.164-27.171-7.096zM556.043 304.845v283.767l21.176 17.209c30.478 24.767 35.122 69.715 10.355 100.191-8.402 10.34-19.325 17.946-31.532 22.247v147.806c0 11.678-9.466 21.144-21.144 21.144s-21.144-9.466-21.144-21.144v-146.222c-3.437-0.927-6.81-2.11-10.074-3.541-5.809 6.829-13.612 11.615-22.504 13.701-22.56 5.325-45.421-8.454-50.829-31.51l-11.157-47.547c-9.484-7.709-8.989-7.233-10.482-8.653l-0.083 16.521c-0.267 52.8-43.437 95.751-96.235 95.751h-44.378c4.050-17.102 1.4-35.764-8.907-51.684l-116.736-180.288c-11.096-17.135-28.722-27.485-47.498-29.919l0.018-517.88c0-26.949 21.848-48.799 48.8-48.799s48.799 21.847 48.799 48.799v390.060h21.072v-390.055c0-26.951 21.849-48.801 48.801-48.801s48.799 21.849 48.799 48.801c0 181.295-0.841 495.662-0.884 683.815 0 4.699 3.808 8.512 8.506 8.512 4.701 0 8.512-3.808 8.512-8.506 0-0.068 0-0.14 0-0.209l0.693-137.609c0.077-15.375 8.819-29.396 22.596-36.225 13.789-6.84 30.244-5.299 42.515 3.935l67.549 50.811c5.758-7.097 12.036-12.168 22.603-12.168 5.92 0 11.876 1.957 16.828 5.982l13.669 11.108v-249.401l-52.652-87.040h33.818l18.836 31.138v-31.138c15.98 0 25.902 0 42.29 0v31.138l18.836-31.138h33.818l-52.649 87.040zM483.234 563.864l-56.15 69.092 16.016 13.013 13.241 56.427c1.964 8.364 10.329 13.587 18.728 11.607 8.377-1.965 13.574-10.348 11.609-18.728l-4.028-17.166 21.572 17.53c19.082 15.507 47.119 12.605 62.619-6.472 15.504-19.080 12.609-47.114-6.469-62.619l-77.138-62.684zM649.729 176.344c-3.803 4.542-9.422 7.169-15.346 7.169h-199.874c-5.924 0-11.546-2.624-15.346-7.169-3.801-4.543-5.395-10.539-4.352-16.37l37.163-207.487c1.709-9.54 10.005-16.482 19.697-16.482h125.548c9.692 0 17.988 6.944 19.698 16.482l37.162 207.487c1.046 5.831-0.548 11.826-4.349 16.37z" />
<glyph unicode="&#xe932;" glyph-name="star" horiz-adv-x="1043" d="M474.519 639.443c-1.264 3.232-3.407 6.045-6.187 8.122s-6.087 3.332-9.546 3.625c-3.459 0.294-6.932-0.386-10.027-1.963s-5.688-3.987-7.487-6.96l-65.198-107.793-125.689-7.496c-3.466-0.206-6.807-1.379-9.643-3.384s-5.057-4.765-6.41-7.965c-1.352-3.2-1.783-6.714-1.243-10.144s2.029-6.639 4.298-9.265l82.281-95.225-31.863-121.857c-0.878-3.362-0.8-6.903 0.228-10.215 1.027-3.319 2.962-6.28 5.585-8.55s5.831-3.763 9.26-4.306c3.429-0.543 6.942-0.117 10.143 1.234l116.058 48.955 105.998-67.818c2.923-1.869 6.312-2.887 9.784-2.93s6.888 0.888 9.862 2.683c2.974 1.795 5.387 4.386 6.966 7.483s2.262 6.57 1.971 10.030l-10.54 125.467 97.368 79.951c2.683 2.205 4.701 5.116 5.817 8.404s1.295 6.824 0.506 10.205c-0.783 3.381-2.498 6.474-4.953 8.929-2.449 2.455-5.539 4.174-8.92 4.963l-122.58 28.589-45.838 117.231zM198.596 457.696c-11.117 9.648-17.952 23.311-19.008 37.993s3.757 29.182 13.379 40.32c3.213 3.71 4.82 8.545 4.469 13.441s-2.634 9.45-6.344 12.664c-3.71 3.213-8.545 4.82-13.441 4.468s-9.45-2.634-12.663-6.344c-9.648-11.116-23.311-17.951-37.993-19.006s-29.182 3.756-40.32 13.378c-3.71 3.213-8.545 4.82-13.441 4.469s-9.45-2.634-12.663-6.344c-3.213-3.71-4.82-8.545-4.468-13.44s2.634-9.451 6.344-12.664c11.117-9.648 17.952-23.311 19.008-37.992s-3.757-29.182-13.379-40.32c-3.213-3.71-4.82-8.545-4.469-13.44s2.634-9.451 6.344-12.664c3.71-3.213 8.545-4.82 13.44-4.469s9.451 2.634 12.664 6.344c9.648 11.117 23.311 17.952 37.992 19.008s29.182-3.757 40.32-13.379c3.71-3.213 8.545-4.82 13.44-4.469s9.451 2.634 12.664 6.344c3.213 3.71 4.82 8.545 4.469 13.441s-2.634 9.45-6.344 12.663zM735.269 87.577c-11.116 9.648-17.951 23.311-19.006 37.993s3.757 29.178 13.38 40.318c3.214 3.707 4.818 8.544 4.466 13.442-0.352 4.892-2.634 9.45-6.341 12.664-3.714 3.208-8.55 4.818-13.442 4.466-4.898-0.352-9.45-2.634-12.664-6.348-9.648-11.116-23.311-17.951-37.993-19.006s-29.184 3.757-40.318 13.38c-3.714 3.214-8.547 4.818-13.442 4.466s-9.45-2.634-12.664-6.341c-3.213-3.714-4.82-8.544-4.468-13.442s2.634-9.45 6.344-12.664c11.116-9.648 17.95-23.311 19.004-37.993s-3.754-29.178-13.376-40.318c-3.213-3.714-4.82-8.544-4.469-13.442 0.352-4.892 2.634-9.45 6.344-12.664s8.545-4.818 13.443-4.466c4.892 0.352 9.45 2.634 12.658 6.341 9.648 11.116 23.311 17.951 37.993 19.006 14.681 1.061 29.184-3.751 40.325-13.374 3.707-3.214 8.544-4.824 13.435-4.472 4.898 0.352 9.45 2.634 12.664 6.348 3.214 3.707 4.824 8.544 4.472 13.442-0.352 4.892-2.634 9.45-6.348 12.664zM549.772 693.18c11.116-9.648 17.951-23.311 19.006-37.992s-3.756-29.182-13.378-40.32c-3.213-3.71-4.82-8.545-4.469-13.44s2.634-9.451 6.344-12.664c3.71-3.213 8.545-4.82 13.44-4.469s9.451 2.634 12.664 6.344c9.648 11.116 23.311 17.951 37.99 19.006 14.681 1.055 29.184-3.756 40.325-13.378 3.707-3.213 8.544-4.82 13.435-4.469 4.898 0.352 9.45 2.634 12.664 6.344s4.824 8.545 4.472 13.441c-0.352 4.895-2.634 9.45-6.348 12.664-11.116 9.648-17.951 23.311-19.006 37.992s3.757 29.182 13.38 40.32c3.214 3.71 4.818 8.545 4.466 13.441s-2.634 9.45-6.341 12.664c-3.714 3.213-8.55 4.82-13.442 4.468-4.898-0.352-9.45-2.634-12.664-6.344-9.648-11.116-23.311-17.951-37.993-19.006s-29.182 3.756-40.32 13.379c-3.71 3.213-8.545 4.82-13.441 4.468s-9.45-2.634-12.664-6.344c-3.213-3.71-4.82-8.545-4.468-13.44s2.634-9.451 6.344-12.664z" />
<glyph unicode="&#xe933;" glyph-name="steering" d="M512 396.8c14.139 0 25.6 11.461 25.6 25.6s-11.461 25.6-25.6 25.6c-14.139 0-25.6-11.461-25.6-25.6s11.461-25.6 25.6-25.6zM512 960c-281.916 0-512-230.098-512-512 0-281.923 230.098-512 512-512 281.92 0 512 230.098 512 512 0 281.916-230.098 512-512 512zM512 838c194.647 0 356.439-143.336 385.385-329.999h-104.038c-65.964 0-128.637 26.468-171.948 72.62-59.2 63.094-159.593 63.114-218.798 0.003-43.31-46.154-105.984-72.622-171.949-72.622h-104.036c28.946 186.662 190.737 329.999 385.384 329.999zM512 328c-49.623 0-89.999 40.371-89.999 89.999s40.376 90.002 89.999 90.002c49.628 0 89.999-40.374 89.999-90.002s-40.371-89.999-89.999-89.999zM148.84 305.805c34.34 13.473 59.136 22.195 93.16 22.195 109.375 0 194.439-97.467 177.963-206.981h-0.072c-2.447-16.76-7.263-33.004-14.208-48.289-117.519 33.341-212.621 120.525-256.843 233.075zM618.342 72.737c-7.137 15.69-11.848 31.931-14.234 48.282h-0.072c-19.197 127.611 98.604 232.906 220.708 201.874 12.874-3.272 28.982-8.681 50.414-17.088-44.219-112.543-139.31-199.724-256.817-233.068z" />
<glyph unicode="&#xe934;" glyph-name="tag" horiz-adv-x="964" d="M432.188 925.365l447.205-63.925 63.88-447.247-415.265-415.265c-8.471-8.469-19.961-13.222-31.94-13.222s-23.468 4.753-31.94 13.222l-447.247 447.25c-8.469 8.471-13.227 19.961-13.227 31.94s4.758 23.468 13.227 31.94l415.307 415.307zM464.128 829.5l-351.428-351.383 383.368-383.325 351.383 351.386-47.887 335.435-335.435 47.887zM559.902 541.997c-16.948 16.954-26.467 39.946-26.463 63.918 0.002 11.87 2.343 23.623 6.887 34.588s11.204 20.929 19.599 29.32c8.394 8.392 18.36 15.048 29.327 19.589s22.721 6.876 34.593 6.874c23.968-0.004 46.959-9.531 63.91-26.485 16.944-16.954 26.461-39.946 26.461-63.918-0.006-23.972-9.535-46.961-26.485-63.909-16.956-16.948-39.948-26.466-63.922-26.462-23.97 0.004-46.959 9.531-63.907 26.485z" />
<glyph unicode="&#xe935;" glyph-name="team" d="M926.157 115.899c14.326 19.381 22.815 43.362 22.815 69.3 0 64.246-52.034 116.514-115.996 116.514s-115.996-52.266-115.996-116.514c0-26.001 8.528-50.033 22.913-69.44-27.102-11.894-50.349-31.014-67.353-54.922-17.069 24-40.425 43.176-67.659 55.062 14.326 19.381 22.815 43.362 22.815 69.3 0 64.246-52.034 116.514-115.996 116.514s-115.996-52.266-115.996-116.514c0-26.001 8.528-50.033 22.913-69.44-27.050-11.87-50.259-30.938-67.253-54.78-17.058 23.935-40.378 43.059-67.558 54.922 14.326 19.381 22.815 43.362 22.815 69.301 0 64.244-52.037 116.512-115.996 116.512s-115.996-52.265-115.996-116.512c0-26.001 8.528-50.034 22.913-69.44-57.348-25.168-97.542-82.663-97.542-149.438v-30.324h1024v30.324c0.004 66.892-40.332 124.477-97.843 149.576zM716.8 618.963l-127.226 40.786-77.574 110.080-77.572-110.080-127.228-40.786 79.285-108.819-1.059-135.286 126.574 42.824 126.574-42.824-1.058 135.286 79.284 108.819zM541.257 960h-58.514v-87.771h58.514v87.771zM936.229 594.286h-87.771v-58.514h87.771v58.514zM175.543 594.286h-87.771v-58.514h87.771v58.514zM818.464 871.493l-72.407-72.408 41.375-41.375 72.409 72.407-41.377 41.376zM216.918 869.719l-41.375-41.376 72.407-72.407 41.377 41.375-72.409 72.407z" />
<glyph unicode="&#xe936;" glyph-name="time-tested-cleaning" horiz-adv-x="1152" d="M11.2 382.4c-9.6 20.8 0 43.2 20.8 52.8s43.2 0 52.8-20.8l-73.6-32zM204.8 267.2l11.2 38.4c20.8-6.4 32-25.6 28.8-46.4l-40 8zM675.2 120l-35.2 17.6c4.8 11.2 16 17.6 27.2 20.8s24 0 33.6-8l-25.6-30.4zM974.4 404.8l-28.8-27.2c-9.6 9.6-12.8 24-9.6 38.4s14.4 24 28.8 27.2l9.6-38.4zM940.8 736l-3.2-40c-17.6 1.6-32 14.4-35.2 32l38.4 8zM515.2 804.8l33.6-20.8c-6.4-9.6-17.6-17.6-28.8-19.2s-24 3.2-32 11.2l27.2 28.8zM208 713.6l40-6.4c-3.2-16-14.4-27.2-28.8-32l-11.2 38.4zM84.8 563.2c-9.6-19.2-33.6-28.8-52.8-19.2-20.8 9.6-28.8 32-20.8 52.8l73.6-33.6zM84.8 416c24-52.8 72-94.4 131.2-110.4l-22.4-76.8c-81.6 24-148.8 80-182.4 155.2l73.6 32zM244.8 257.6c-3.2-12.8-3.2-24-3.2-36.8h-80c0 19.2 1.6 36.8 6.4 54.4l76.8-17.6zM240 220.8c0-104 91.2-193.6 209.6-193.6v-80c-156.8 0-289.6 120-289.6 273.6h80zM449.6 27.2c84.8 0 156.8 46.4 188.8 110.4l72-36.8c-48-92.8-147.2-155.2-260.8-155.2v81.6zM699.2 150.4c30.4-24 70.4-40 115.2-40v-80c-62.4 0-120 20.8-164.8 57.6l49.6 62.4zM814.4 112c99.2 0 174.4 73.6 174.4 160h80c0-134.4-116.8-240-254.4-240v80zM988.8 272c0 40-16 76.8-43.2 105.6l57.6 56c40-41.6 65.6-99.2 65.6-161.6h-80zM963.2 444.8c59.2 16 100.8 67.2 100.8 123.2h80c0-97.6-68.8-176-160-201.6l-20.8 78.4zM1064 568c0 65.6-54.4 121.6-128 128l6.4 80c110.4-9.6 200-97.6 200-208h-78.4zM900.8 728c-16 80-91.2 144-187.2 144v80c129.6 0 241.6-88 265.6-208l-78.4-16zM713.6 872c-70.4 0-132.8-35.2-164.8-88l-67.2 43.2c48 75.2 134.4 124.8 232 124.8v-80zM488 776c-25.6 24-60.8 40-100.8 40v80c60.8 0 116.8-24 156.8-60.8l-56-59.2zM387.2 816c-72 0-128-49.6-139.2-108.8l-78.4 12.8c17.6 102.4 108.8 176 217.6 176v-80zM219.2 675.2c-60.8-16-110.4-59.2-134.4-112l-73.6 32c33.6 76.8 102.4 134.4 187.2 156.8l20.8-76.8zM784 206.4c-54.4 0-99.2 43.2-99.2 94.4s44.8 94.4 99.2 94.4 99.2-43.2 99.2-94.4-44.8-94.4-99.2-94.4zM784 355.2c-33.6 0-60.8-24-60.8-54.4s27.2-54.4 60.8-54.4 60.8 24 60.8 54.4-27.2 54.4-60.8 54.4zM784 355.2c-11.2 0-19.2 9.6-19.2 19.2v38.4c0 11.2 9.6 19.2 19.2 19.2s19.2-9.6 19.2-19.2v-38.4c0-11.2-8-19.2-19.2-19.2zM787.2 160c-11.2 0-19.2 9.6-19.2 19.2v36.8c0 11.2 9.6 19.2 19.2 19.2s19.2-9.6 19.2-19.2v-36.8c0-11.2-8-19.2-19.2-19.2zM908.8 273.6h-40c-11.2 0-19.2 9.6-19.2 19.2s9.6 19.2 19.2 19.2h40c11.2 0 19.2-9.6 19.2-19.2s-8-19.2-19.2-19.2zM704 273.6h-38.4c-11.2 0-19.2 9.6-19.2 19.2s9.6 19.2 19.2 19.2h38.4c11.2 0 19.2-9.6 19.2-19.2s-9.6-19.2-19.2-19.2zM844.8 328c-4.8 0-11.2 1.6-14.4 6.4-8 8-6.4 20.8 1.6 28.8l28.8 27.2c8 8 20.8 6.4 28.8-1.6s6.4-20.8-1.6-28.8l-28.8-27.2c-4.8-3.2-9.6-4.8-14.4-4.8zM700.8 193.6c-4.8 0-11.2 1.6-14.4 6.4-8 8-6.4 20.8 1.6 28.8l25.6 24c8 8 20.8 6.4 28.8-1.6s6.4-20.8-1.6-28.8l-25.6-24c-4.8-3.2-9.6-4.8-14.4-4.8zM873.6 193.6c-4.8 0-9.6 1.6-14.4 4.8l-28.8 27.2c-8 8-8 20.8-1.6 28.8 8 8 20.8 8 28.8 1.6l28.8-27.2c8-8 8-20.8 1.6-28.8-3.2-4.8-9.6-6.4-14.4-6.4zM712 344c-4.8 0-9.6 1.6-14.4 4.8l-27.2 25.6c-8 8-8 20.8-1.6 28.8 8 8 20.8 8 28.8 1.6l27.2-25.6c8-8 8-20.8 1.6-28.8-3.2-3.2-9.6-6.4-14.4-6.4zM868.8 536c-35.2 0-64 27.2-64 60.8s28.8 60.8 64 60.8c35.2 0 64-27.2 64-60.8s-28.8-60.8-64-60.8zM868.8 617.6c-12.8 0-24-9.6-24-20.8s11.2-20.8 24-20.8c12.8 0 24 9.6 24 20.8s-11.2 20.8-24 20.8zM428.8 96c-35.2 0-64 27.2-64 60.8s28.8 60.8 64 60.8 64-27.2 64-60.8-28.8-60.8-64-60.8zM428.8 177.6c-12.8 0-24-9.6-24-20.8s11.2-20.8 24-20.8 24 9.6 24 20.8-11.2 20.8-24 20.8zM451.2 297.6h-40c-11.2 0-19.2 9.6-19.2 19.2s9.6 19.2 19.2 19.2h40c11.2 0 19.2-9.6 19.2-19.2s-8-19.2-19.2-19.2zM428.8 380.8c-80 0-145.6 62.4-145.6 137.6s65.6 137.6 145.6 137.6 145.6-62.4 145.6-137.6-65.6-137.6-145.6-137.6zM428.8 616c-57.6 0-105.6-43.2-105.6-97.6s48-97.6 105.6-97.6 105.6 43.2 105.6 97.6-48 97.6-105.6 97.6zM428.8 619.2c-11.2 0-19.2 9.6-19.2 19.2v78.4c0 11.2 9.6 19.2 19.2 19.2s19.2-9.6 19.2-19.2v-76.8c1.6-11.2-8-20.8-19.2-20.8zM449.6 697.6h-40c-11.2 0-19.2 9.6-19.2 19.2s9.6 19.2 19.2 19.2h40c11.2 0 19.2-9.6 19.2-19.2s-8-19.2-19.2-19.2zM428.8 297.6c-11.2 0-19.2 9.6-19.2 19.2v78.4c0 11.2 9.6 19.2 19.2 19.2s19.2-9.6 19.2-19.2v-78.4c1.6-9.6-8-19.2-19.2-19.2zM641.6 497.6h-83.2c-11.2 0-19.2 9.6-19.2 19.2s9.6 19.2 19.2 19.2h83.2c11.2 0 19.2-9.6 19.2-19.2s-8-19.2-19.2-19.2zM643.2 478.4c-11.2 0-19.2 9.6-19.2 19.2v38.4c0 11.2 9.6 19.2 19.2 19.2s19.2-9.6 19.2-19.2v-38.4c0-9.6-8-19.2-19.2-19.2zM299.2 497.6h-83.2c-11.2 0-19.2 9.6-19.2 19.2s9.6 19.2 19.2 19.2h83.2c11.2 0 19.2-9.6 19.2-19.2s-8-19.2-19.2-19.2zM214.4 478.4c-11.2 0-19.2 9.6-19.2 19.2v38.4c0 11.2 9.6 19.2 19.2 19.2s19.2-9.6 19.2-19.2v-38.4c1.6-9.6-8-19.2-19.2-19.2zM520 584c-4.8 0-11.2 1.6-14.4 6.4-8 8-6.4 20.8 1.6 28.8l59.2 56c8 8 20.8 6.4 28.8-1.6s6.4-20.8-1.6-28.8l-59.2-56c-4.8-3.2-9.6-4.8-14.4-4.8zM595.2 625.6c-4.8 0-9.6 1.6-14.4 4.8l-28.8 27.2c-8 8-8 20.8-1.6 28.8 8 8 20.8 8 28.8 1.6l28.8-27.2c8-8 8-20.8 1.6-28.8-4.8-3.2-9.6-6.4-14.4-6.4zM278.4 356.8c-4.8 0-11.2 1.6-14.4 6.4-8 8-8 20.8 0 28.8l59.2 56c8 8 20.8 6.4 28.8-1.6s6.4-20.8-1.6-28.8l-59.2-56c-3.2-3.2-8-4.8-12.8-4.8zM291.2 342.4c-4.8 0-9.6 1.6-14.4 4.8l-28.8 27.2c-8 8-8 20.8-1.6 28.8 8 8 20.8 8 28.8 1.6l28.8-27.2c8-8 8-20.8 1.6-28.8-3.2-3.2-8-6.4-14.4-6.4zM579.2 356.8c-4.8 0-9.6 1.6-14.4 4.8l-59.2 56c-8 8-8 20.8-1.6 28.8 8 8 20.8 8 28.8 1.6l59.2-56c8-8 8-20.8 1.6-28.8-3.2-4.8-8-6.4-14.4-6.4zM566.4 342.4c-4.8 0-11.2 1.6-14.4 6.4-8 8-6.4 20.8 1.6 28.8l28.8 27.2c8 8 20.8 6.4 28.8-1.6s6.4-20.8-1.6-28.8l-28.8-27.2c-4.8-3.2-9.6-4.8-14.4-4.8zM337.6 584c-4.8 0-9.6 1.6-14.4 4.8l-59.2 56c-8 8-8 20.8-1.6 28.8 8 8 20.8 8 28.8 1.6l59.2-56c8-8 8-20.8 1.6-28.8-4.8-4.8-9.6-6.4-14.4-6.4zM264 625.6c-4.8 0-11.2 1.6-14.4 6.4-8 8-6.4 20.8 1.6 28.8l28.8 27.2c8 8 20.8 6.4 28.8-1.6s6.4-20.8-1.6-28.8l-28.8-27.2c-4.8-3.2-9.6-4.8-14.4-4.8z" />
<glyph unicode="&#xe937;" glyph-name="user" horiz-adv-x="723" d="M722.824-33.882h-90.353v90.353c0 35.942-14.282 70.415-39.696 95.834-25.417 25.413-59.889 39.695-95.834 39.695h-271.059c-35.945 0-70.417-14.282-95.834-39.695-25.417-25.419-39.696-59.892-39.696-95.834v-90.353h-90.353v90.353c0 59.91 23.798 117.362 66.159 159.726 42.361 42.357 99.815 66.156 159.723 66.156h271.059c59.908 0 117.362-23.799 159.726-66.156 42.357-42.363 66.156-99.816 66.156-159.726v-90.353zM361.412 372.706c-35.596 0-70.843 7.011-103.73 20.633s-62.768 33.588-87.938 58.758c-25.17 25.17-45.136 55.051-58.758 87.938s-20.633 68.134-20.633 103.73c0 35.596 7.011 70.843 20.633 103.73s33.588 62.768 58.758 87.938c25.17 25.17 55.051 45.136 87.938 58.758s68.134 20.633 103.73 20.633c71.889 0 140.834-28.558 191.668-79.391s79.391-119.778 79.391-191.668c0-71.889-28.558-140.834-79.391-191.668s-119.778-79.391-191.668-79.391zM361.412 463.059c47.926 0 93.889 19.039 127.778 52.928s52.928 79.852 52.928 127.778c0 47.926-19.039 93.889-52.928 127.778s-79.852 52.928-127.778 52.928c-47.926 0-93.889-19.039-127.778-52.928s-52.928-79.852-52.928-127.778c0-47.926 19.039-93.889 52.928-127.778s79.852-52.928 127.778-52.928z" />
<glyph unicode="&#xe938;" glyph-name="world" d="M512 960c-282.77 0-512-229.23-512-512s229.23-512 512-512c282.77 0 512 229.23 512 512s-229.23 512-512 512zM493.494 921.687v-183.943c-67.68-1.345-132.168-10.043-190.874-24.796 9.848 27.162 21.148 52.317 33.67 75.087 43.175 78.497 98.794 125.432 157.203 133.652zM259.348 700.651c-38.43-12.244-73.788-27.225-105.219-44.513-38.913-21.402-72.517-46.802-98.326-75.42 45.196 155.619 167.86 278.283 323.479 323.479-28.617-25.809-54.018-59.413-75.42-98.326-17.288-31.43-32.268-66.789-44.514-105.221zM247.050 657.379c-14.751-58.705-23.45-123.194-24.794-190.874h-183.943c8.22 58.412 55.155 114.030 133.652 157.202 22.77 12.524 47.925 23.824 75.085 33.672zM259.277 466.506c1.528 73.859 12.16 143.199 29.752 204.465 61.267 17.592 130.609 28.226 204.465 29.755v-79.947c-27.554-70.537-83.751-126.729-154.292-154.273h-79.925zM222.256 429.494c1.345-67.68 10.043-132.168 24.794-190.874-27.161 9.848-52.315 21.148-75.085 33.67-78.497 43.175-125.432 98.791-133.652 157.203h183.943zM289.029 225.029c-17.592 61.267-28.224 130.606-29.752 204.465h79.925c70.541-27.544 126.741-83.736 154.292-154.274v-79.946c-73.856 1.528-143.199 12.162-204.465 29.755zM259.348 195.349c12.246-38.431 27.226-73.791 44.514-105.219 21.402-38.915 46.802-72.517 75.42-98.327-155.619 45.194-278.284 167.86-323.479 323.479 25.809-28.617 59.413-54.018 98.326-75.42 31.431-17.288 66.789-32.268 105.219-44.513zM493.494-25.687c-58.409 8.221-114.029 55.155-157.203 133.652-12.523 22.768-23.822 47.926-33.67 75.085 58.705-14.751 123.194-23.45 190.874-24.793v-183.945zM644.719-8.197c28.617 25.81 54.018 59.412 75.422 98.327 17.285 31.429 32.266 66.788 44.51 105.219 38.431 12.244 73.789 27.225 105.222 44.513 38.912 21.402 72.517 46.802 98.324 75.42-45.194-155.619-167.86-278.285-323.479-323.479zM721.379 183.050c-9.848-27.159-21.148-52.317-33.672-75.085-43.172-78.497-98.79-125.432-157.202-133.652v183.945c67.68 1.343 132.168 10.042 190.874 24.793zM776.95 238.621c14.751 58.705 23.45 123.194 24.793 190.874h183.945c-8.221-58.412-55.155-114.029-133.652-157.203-22.77-12.523-47.926-23.822-75.085-33.67zM764.726 429.494c-1.529-73.859-12.162-143.199-29.755-204.465-61.267-17.592-130.606-28.227-204.465-29.755v79.887c27.543 70.565 83.754 126.782 154.314 154.333h79.906zM801.743 466.506c-1.343 67.68-10.042 132.168-24.793 190.874 27.159-9.848 52.315-21.148 75.085-33.672 78.497-43.172 125.432-98.79 133.652-157.202h-183.945zM734.971 670.971c17.592-61.267 28.226-130.606 29.755-204.465h-79.906c-70.56 27.551-126.771 83.769-154.314 154.333v79.887c73.859-1.529 143.199-12.162 204.465-29.755zM764.651 700.651c-12.244 38.431-27.225 73.791-44.51 105.221-21.404 38.913-46.805 72.517-75.422 98.326 155.619-45.196 278.285-167.86 323.479-323.479-25.808 28.617-59.412 54.018-98.324 75.42-31.433 17.288-66.791 32.268-105.222 44.513zM530.506 921.687c58.412-8.22 114.030-55.155 157.202-133.652 12.524-22.77 23.824-47.925 33.672-75.087-58.705 14.752-123.194 23.451-190.874 24.796v183.943z" />
<glyph unicode="&#xe939;" glyph-name="worry-free" horiz-adv-x="892" d="M446.171-69.851c-1.463 0-2.926 0-4.389 0-250.149 52.663-433.006 275.017-433.006 529.554v76.069c0 11.703 8.777 20.48 20.48 20.48s20.48-8.777 20.48-20.48v-76.069c0-234.057 166.766-438.857 397.897-488.594 229.669 49.737 396.434 254.537 396.434 488.594v339.383l-397.897 111.177-396.434-111.177v-83.383c0-11.703-8.777-20.48-20.48-20.48s-20.48 8.777-20.48 20.48v98.011c0 8.777 5.851 17.554 14.629 19.017l416.914 117.029c2.926 1.463 7.314 1.463 10.24 0l416.914-117.029c8.777-2.926 14.629-10.24 14.629-19.017v-354.011c0-254.537-181.394-476.891-433.006-529.554 0 0-1.463 0-2.926 0zM453.486 32.549c-1.463 0-2.926 0-4.389 0-198.949 51.2-336.457 229.669-336.457 434.469v285.257c0 8.777 5.851 17.554 14.629 19.017l321.829 90.697c2.926 1.463 7.314 1.463 10.24 0l321.829-90.697c8.777-2.926 14.629-10.24 14.629-19.017v-283.794c0-204.8-138.971-383.269-336.457-434.469-2.926-1.463-4.389-1.463-5.851-1.463zM152.137 737.646v-269.166c0-184.32 124.343-346.697 301.349-394.971 178.469 48.274 301.349 209.189 301.349 394.971v269.166l-301.349 84.846-301.349-84.846zM488.594 339.749h-86.309c-11.703 0-20.48 8.777-20.48 20.48v46.811h-45.349c-11.703 0-20.48 8.777-20.48 20.48v86.309c0 11.703 8.777 20.48 20.48 20.48h46.811v45.349c0 11.703 8.777 20.48 20.48 20.48h86.309c11.703 0 20.48-8.777 20.48-20.48v-46.811h45.349c11.703 0 20.48-8.777 20.48-20.48v-86.309c0-11.703-8.777-20.48-20.48-20.48h-46.811v-45.349c0-11.703-8.777-20.48-20.48-20.48zM422.766 380.709h46.811v46.811c0 11.703 8.777 20.48 20.48 20.48h46.811v46.811h-46.811c-11.703 0-20.48 8.777-20.48 20.48v46.811h-46.811v-46.811c0-11.703-8.777-20.48-20.48-20.48h-46.811v-46.811h46.811c11.703 0 20.48-8.777 20.48-20.48v-46.811zM438.857 222.72c-131.657 0-239.909 106.789-239.909 239.909 0 131.657 106.789 239.909 239.909 239.909 131.657 0 239.909-106.789 239.909-239.909 0-131.657-108.251-239.909-239.909-239.909zM438.857 661.577c-109.714 0-198.949-89.234-198.949-198.949s89.234-198.949 198.949-198.949c109.714 0 198.949 89.234 198.949 198.949s-89.234 198.949-198.949 198.949z" />
</font>
</defs>
</svg>
